Пароль:
Войти
МУЗЫКА/MUSIC ИГРЫ/GAMES ВИДЕО/VIDEO

Разделы сайта

Статистика

Всего
Польз.
Гости
Онлайн всего: 3
Гостей: 3
Пользователей: 0
fayfa
Администраторы
8997
katrin
Модераторы
8178
Nik
VIP пользователи
7094
stigmata
Администраторы
6471
Vanok
VIP пользователи
3797

Онлайн радио

Каталог торрентов

44
Пиды
12
Сиды

VA - Песня 75, 76, 77 (3 CD) (2007) [FLAC|Lossless]<Retro|Pop>

Добавил: fayfa Дата: 03 Apr 2019 Просмотров: 19
Скачать VA - Песня 75, 76, 77 (3 CD) (2007) [FLAC|Lossless]<Retro|Pop>


Год: 2007
Жанр: Retro|Pop
Страна-производитель дисков: Россия
Издатель (лейбл): Бомба Мьюзик
Аудиокодек: FLAC (*.flac)
Тип рипа: tracks+.cue
Битрейт: Lossless
Наличие сканов в содержимом раздачи: 600 dpi


[spoiler=CD 1 (Песня - 75):]Номер по каталогу: BoMB 033-369
Продолжительность: 00:54:51

Треклист:
01. ВИА «Пламя» / У деревни Крюково [0:03:29.55]
02. Тамара Синявская / Черноглазая казачка [0:03:25.05]
03. Геннадий Пономарев / Барабан [0:02:59.49]
04. Мики Евремович (СФРЮ) / Московская серенада [0:04:15.13]
05. София Ротару / Лебединая верность [0:04:44.61]
06. Лев Лещенко / Любимые женщины [0:04:00.39]
07. Рано Шарипова / Осенние сны [0:02:35.35]
08. ВИА «Песняры» / Добрый вечер, девчоночка [0:03:20.36]
09. Ольга Воронец / Сладка ягода [0:04:21.61]
10. Муслим Магомаев / Надежда [0:03:20.26]
11. София Ротару, ансамбль «Червона рута» / Яблони в цвету [0:03:29.65]
12. ВИА «Пламя» / Вся жизнь впереди [0:02:56.53]
13. Муслим Магомаев / Твои следы [0:04:10.03]
14. София Ротару, Мики Евремович (СФРЮ) / Смуглянка [0:04:43.67]
15. Лев Лещенко / И вновь продолжается бой [0:02:56.72] Код: выделить все
Exact Audio Copy V1.0 beta 3 from 29. August 2011
Отчёт EAC об извлечении, выполненном 1. февраля 2012, 2:17
Various / Песня 75
Дисковод: TEAC    DV-W520GM   Adapter: 4  ID: 0
Режим чтения                 : Достоверность
Использование точного потока : Да
Отключение кэша аудио        : Да
Использование указателей C2  : Нет
Коррекция смещения при чтении                     : 6
Способность читать области Lead-in и Lead-out     : Нет
Заполнение пропущенных сэмплов тишиной            : Да
Удаление блоков с тишиной в начале и конце        : Нет
При вычислениях CRC использовались нулевые сэмплы : Да
Интерфейс                                         : Встроенный Win32-интерфейс для Win NT/2000
Обработка зазоров                                 : Добавлено к предыдущему треку
Выходной формат : Внутренние WAV-операции
Формат сэмплов  : 44.100 Гц; 16 бит; стерео
TOC извлечённого CD
     Трек |   Старт  | Длительность | Начальный сектор | Конечный сектор
    ---------------------------------------------------------------------
       1  |  0:00.00 |    3:29.55   |           0      |      15729
       2  |  3:29.55 |    3:25.05   |       15730      |      31109
       3  |  6:54.60 |    2:59.49   |       31110      |      44583
       4  |  9:54.34 |    4:15.13   |       44584      |      63721
       5  | 14:09.47 |    4:44.61   |       63722      |      85082
       6  | 18:54.33 |    4:00.39   |       85083      |     103121
       7  | 22:54.72 |    2:35.35   |      103122      |     114781
       8  | 25:30.32 |    3:20.36   |      114782      |     129817
       9  | 28:50.68 |    4:21.61   |      129818      |     149453
      10  | 33:12.54 |    3:20.26   |      149454      |     164479
      11  | 36:33.05 |    3:29.65   |      164480      |     180219
      12  | 40:02.70 |    2:56.53   |      180220      |     193472
      13  | 42:59.48 |    4:10.03   |      193473      |     212225
      14  | 47:09.51 |    4:43.67   |      212226      |     233517
      15  | 51:53.43 |    2:56.72   |      233518      |     246789
Трек  1
     Имя файла T:СБОРНИКИ И СЕРИИСЕРИЯ «ПЕСНЯ»© 2007 Песня - 751. ВИА «Пламя» - У деревни Крюково.wav
     Длина предзазора  0:00:02.00
     Пиковый уровень 99.8 %
     Скорость извлечения 3.4 X
     Качество трека 100.0 %
     CRC теста D5050045
     CRC копии D5050045
     Трек не обнаружен в базе AccurateRip
     Копирование. OK
Трек  2
     Имя файла T:СБОРНИКИ И СЕРИИСЕРИЯ «ПЕСНЯ»© 2007 Песня - 752. Тамара Синявская - Черноглазая казачка.wav
     Пиковый уровень 98.2 %
     Скорость извлечения 3.7 X
     Качество трека 100.0 %
     CRC теста 3F666482
     CRC копии 3F666482
     Трек не обнаружен в базе AccurateRip
     Копирование. OK
Трек  3
     Имя файла T:СБОРНИКИ И СЕРИИСЕРИЯ «ПЕСНЯ»© 2007 Песня - 753. Геннадий Пономарев - Барабан.wav
     Пиковый уровень 99.8 %
     Скорость извлечения 3.8 X
     Качество трека 100.0 %
     CRC теста 473F1E35
     CRC копии 473F1E35
     Трек не обнаружен в базе AccurateRip
     Копирование. OK
Трек  4
     Имя файла T:СБОРНИКИ И СЕРИИСЕРИЯ «ПЕСНЯ»© 2007 Песня - 754. Мики Евремович (СФРЮ) - Московская серенада.wav
     Пиковый уровень 91.8 %
     Скорость извлечения 4.3 X
     Качество трека 100.0 %
     CRC теста 92EB7724
     CRC копии 92EB7724
     Трек не обнаружен в базе AccurateRip
     Копирование. OK
Трек  5
     Имя файла T:СБОРНИКИ И СЕРИИСЕРИЯ «ПЕСНЯ»© 2007 Песня - 755. София Ротару - Лебединая верность.wav
     Пиковый уровень 99.8 %
     Скорость извлечения 4.7 X
     Качество трека 100.0 %
     CRC теста F85413FB
     CRC копии F85413FB
     Трек не обнаружен в базе AccurateRip
     Копирование. OK
Трек  6
     Имя файла T:СБОРНИКИ И СЕРИИСЕРИЯ «ПЕСНЯ»© 2007 Песня - 756. Лев Лещенко - Любимые женщины.wav
     Пиковый уровень 99.8 %
     Скорость извлечения 4.9 X
     Качество трека 100.0 %
     CRC теста AE90D117
     CRC копии AE90D117
     Трек не обнаружен в базе AccurateRip
     Копирование. OK
Трек  7
     Имя файла T:СБОРНИКИ И СЕРИИСЕРИЯ «ПЕСНЯ»© 2007 Песня - 757. Рано Шарипова - Осенние сны.wav
     Пиковый уровень 99.8 %
     Скорость извлечения 4.7 X
     Качество трека 100.0 %
     CRC теста 38EC89F8
     CRC копии 38EC89F8
     Трек не обнаружен в базе AccurateRip
     Копирование. OK
Трек  8
     Имя файла T:СБОРНИКИ И СЕРИИСЕРИЯ «ПЕСНЯ»© 2007 Песня - 758. ВИА «Песняры» - Добрый вечер, девчоночка.wav
     Пиковый уровень 99.8 %
     Скорость извлечения 4.0 X
     Качество трека 99.9 %
     CRC теста 042A1C1A
     CRC копии 042A1C1A
     Трек не обнаружен в базе AccurateRip
     Копирование. OK
Трек  9
     Имя файла T:СБОРНИКИ И СЕРИИСЕРИЯ «ПЕСНЯ»© 2007 Песня - 759. Ольга Воронец - Сладка ягода.wav
     Пиковый уровень 99.8 %
     Скорость извлечения 5.6 X
     Качество трека 100.0 %
     CRC теста 5F216444
     CRC копии 5F216444
     Трек не обнаружен в базе AccurateRip
     Копирование. OK
Трек 10
     Имя файла T:СБОРНИКИ И СЕРИИСЕРИЯ «ПЕСНЯ»© 2007 Песня - 7510. Муслим Магомаев - Надежда.wav
     Пиковый уровень 98.2 %
     Скорость извлечения 5.5 X
     Качество трека 100.0 %
     CRC теста 41FE46D6
     CRC копии 41FE46D6
     Трек не обнаружен в базе AccurateRip
     Копирование. OK
Трек 11
     Имя файла T:СБОРНИКИ И СЕРИИСЕРИЯ «ПЕСНЯ»© 2007 Песня - 7511. София Ротару, ансамбль «Червона рута» - Яблони в цвету.wav
     Пиковый уровень 99.8 %
     Скорость извлечения 5.8 X
     Качество трека 100.0 %
     CRC теста 68D4663B
     CRC копии 68D4663B
     Трек не обнаружен в базе AccurateRip
     Копирование. OK
Трек 12
     Имя файла T:СБОРНИКИ И СЕРИИСЕРИЯ «ПЕСНЯ»© 2007 Песня - 7512. ВИА «Пламя» - Вся жизнь впереди.wav
     Пиковый уровень 99.8 %
     Скорость извлечения 5.8 X
     Качество трека 100.0 %
     CRC теста 7F8BEA20
     CRC копии 7F8BEA20
     Трек не обнаружен в базе AccurateRip
     Копирование. OK
Трек 13
     Имя файла T:СБОРНИКИ И СЕРИИСЕРИЯ «ПЕСНЯ»© 2007 Песня - 7513. Муслим Магомаев - Твои следы.wav
     Пиковый уровень 99.8 %
     Скорость извлечения 6.3 X
     Качество трека 100.0 %
     CRC теста 2BE6E2D5
     CRC копии 2BE6E2D5
     Трек не обнаружен в базе AccurateRip
     Копирование. OK
Трек 14
     Имя файла T:СБОРНИКИ И СЕРИИСЕРИЯ «ПЕСНЯ»© 2007 Песня - 7514. София Ротару, Мики Евремович (СФРЮ) - Смуглянка.wav
     Пиковый уровень 92.6 %
     Скорость извлечения 6.6 X
     Качество трека 100.0 %
     CRC теста C6D4993A
     CRC копии C6D4993A
     Трек не обнаружен в базе AccurateRip
     Копирование. OK
Трек 15
     Имя файла T:СБОРНИКИ И СЕРИИСЕРИЯ «ПЕСНЯ»© 2007 Песня - 7515. Лев Лещенко - И вновь продолжается бой.wav
     Пиковый уровень 99.8 %
     Скорость извлечения 4.7 X
     Качество трека 99.9 %
     CRC теста 53126AEE
     CRC копии 53126AEE
     Трек не обнаружен в базе AccurateRip
     Копирование. OK
Ни одного трека нет в базе AccurateRip
Ошибок не произошло
Конец отчёта
==== Контрольная сумма отчёта 3A65F8C56D2CBC5801142303EB656C632774215C5F2D284545181C5597EFA299 ====
[/spoiler]
Всего комментариев: 0
Добавлять комментарии могут только зарегистрированные пользователи.
[ Регистрация | Вход ]

Опрос

Хотели бы вы вернуть СССР ?
Всего ответов: 499