Пароль:
Войти
МУЗЫКА/MUSIC ИГРЫ/GAMES ВИДЕО/VIDEO

Разделы сайта

Статистика

Всего
Польз.
Гости
Онлайн всего: 42
Гостей: 42
Пользователей: 0
fayfa
Администраторы
10568
katrin
Модераторы
8407
Nik
VIP пользователи
8380
stigmata
Администраторы
8078
Vanok
VIP пользователи
4563

Онлайн радио

Каталог торрентов

166
Пиды
231
Сиды

Pink (P!NK) - Greatest Hits... So Far 2019!!! (2010/2019) Japanese Edition [FLAC|Lossless|image + .cue] Pop, Pop Rock

Добавил: Nik Дата: 07 Jan 2020 Просмотров: 42
Скачать Pink (P!NK) - Greatest Hits... So Far 2019!!! (2010/2019) Japa

Жанр: Pop, Pop Rock
Продолжительность: 01:13:50
Лейбл: RCA/ Sony ‎– SICP-6200
Страна: Doylestown, Pennsylvania, USA
Страна-производитель диска: Japan
Особенность релиза: Compilation, Limited Edition, Cardboard Sleeve
Кодек: FLAC
Битрейт: Lossless
Тип рипа: image + .cue
Источник (релизер): HaRD
Треклист:

01. So What (3:36)
02. F**kin Perfect (3:33)
03. Raise Your Glass (3:23)
04. Get The Party Started (3:13)
05. Who Knew (3:29)
06. Just Like A Pill (3:58)
07. Sober (4:11)
08. U + Ur Hand (3:34)
09. Don't Let Me Get Me (3:32)
10. Stupid Girls (3:16)
11. Please Don't Leave Me (3:52)
12. Funhouse (3:26)
13. Dear Mr. President (featuring Indigo Girls) (4:34)
14. Trouble (3:14)
15. There You Go (3:25)
16. Family Portrait (4:55)
17. Heartbreak Down (3:18)
18. Bad Influence (3:37)
19. You Make Me Sick (4:05)
20. So What (Bimbo Jones Radio Mix) (Bonus Track) (3:38)


Внимание! Трек-лист отличается от неправильного на discogs
[spoiler=Отчёт EAC:]
Exact Audio Copy V1.1 from 23. June 2015

EAC extraction logfile from 10. November 2019, 17:49

P!NK / Greatest Hits... So Far 2019!!! (SICP-6200)

Used drive : TSSTcorpDVDWBD SH-B123L Adapter: 0 ID: 4

Read mode : Secure
Utilize accurate stream : Yes
Defeat audio cache : Yes
Make use of C2 pointers : No

Read offset correction : 6
Overread into Lead-In and Lead-Out : No
Fill up missing offset samples with silence : Yes
Delete leading and trailing silent blocks : No
Null samples used in CRC calculations : Yes
Used interface : Installed external ASPI interface

Used output format : User Defined Encoder
Selected bitrate : 768 kBit/s
Quality : High
Add ID3 tag : No
Command line compressor : C:Program Files (x86)Exact Audio CopyFLACFLAC.EXE
Additional command line options : -6 -V -T "ARTIST=%artist%" -T "TITLE=%title%" -T "ALBUM=%albumtitle%" -T "DATE=%year%" -T "TRACKNUMBER=%tracknr%" -T "GENRE=%genre%" -T "COMMENT=%comment%" -T "BAND=%albuminterpret%" -T "ALBUMARTIST=%albuminterpret%" -T "COMPOSER=%composer%" %haslyrics%--tag-from-file=LYRICS="%lyricsfile%"%haslyrics% -T "DISCNUMBER=%cdnumber%" -T "TOTALDISCS=%totalcds%" -T "TOTALTRACKS=%numtracks%" %hascover%--picture="%coverfile%"%hascover% %source% -o %dest%

TOC of the extracted CD

Track | Start | Length | Start sector | End sector
---------------------------------------------------------
1 | 0:00.00 | 3:35.47 | 0 | 16171
2 | 3:35.47 | 3:33.32 | 16172 | 32178
3 | 7:09.04 | 3:23.36 | 32179 | 47439
4 | 10:32.40 | 3:13.10 | 47440 | 61924
5 | 13:45.50 | 3:28.60 | 61925 | 77584
6 | 17:14.35 | 3:57.40 | 77585 | 95399
7 | 21:12.00 | 4:11.35 | 95400 | 114259
8 | 25:23.35 | 3:34.22 | 114260 | 130331
9 | 28:57.57 | 3:31.44 | 130332 | 146200
10 | 32:29.26 | 3:15.66 | 146201 | 160891
11 | 35:45.17 | 3:52.29 | 160892 | 178320
12 | 39:37.46 | 3:25.66 | 178321 | 193761
13 | 43:03.37 | 4:33.53 | 193762 | 214289
14 | 47:37.15 | 3:14.02 | 214290 | 228841
15 | 50:51.17 | 3:25.07 | 228842 | 244223
16 | 54:16.24 | 4:55.11 | 244224 | 266359
17 | 59:11.35 | 3:18.29 | 266360 | 281238
18 | 62:29.64 | 3:37.01 | 281239 | 297514
19 | 66:06.65 | 4:05.16 | 297515 | 315905
20 | 70:12.06 | 3:37.59 | 315906 | 332239

Range status and errors

Selected range

Filename E:MUSICP!NK - Greatest Hits... So Far 2019!!! (SICP-6200).wav

Peak level 100.0 %
Extraction speed 3.9 X
Range quality 99.9 %
Test CRC 73EA56D9
Copy CRC 73EA56D9
Copy OK

No errors occurred

AccurateRip summary

Track 1 not present in database
Track 2 not present in database
Track 3 not present in database
Track 4 not present in database
Track 5 not present in database
Track 6 not present in database
Track 7 not present in database
Track 8 not present in database
Track 9 not present in database
Track 10 not present in database
Track 11 not present in database
Track 12 not present in database
Track 13 not present in database
Track 14 not present in database
Track 15 not present in database
Track 16 not present in database
Track 17 not present in database
Track 18 not present in database
Track 19 not present in database
Track 20 not present in database

None of the tracks are present in the AccurateRip database

End of status report
Всего комментариев: 0
Добавлять комментарии могут только зарегистрированные пользователи.
[ Регистрация | Вход ]

Опрос

Какой у вас браузер?
Всего ответов: 507