Пароль:
Войти
МУЗЫКА/MUSIC ИГРЫ/GAMES ВИДЕО/VIDEO

Разделы сайта

Статистика

Всего
Польз.
Гости
Онлайн всего: 28
Гостей: 28
Пользователей: 0
fayfa
Администраторы
11066
Nik
VIP пользователи
8771
stigmata
Администраторы
8549
katrin
Модераторы
8472
vika0509
Модераторы
5028

Онлайн радио

Каталог торрентов

31
Пиды
18
Сиды

(Hard'N'Heavy) [CD] Легенда - Дискография (2 CD) - 2014-2018, FLAC (image+.cue), lossless

Добавил: vika0509 Дата: 24 Mar 2020 Просмотров: 26
Скачать (Hard'N'Heavy) [CD] Легенда - Дискография (2 CD) - 2014-2018,

Жанр: Hard'N'Heavy
Носители: CD
Страна-производитель дисков (релизов): Россия
Годы издания: 2014-2018
Страна исполнителя (группы): Россия (Москва)
Аудиокодек: FLAC (*.flac)
Тип рипа: image+.cue
Источник: собственный рип
Наличие сканов в содержимом раздачи: да



[spoiler=Содержание индексной карты (.CUE)]

REM GENRE "Heavy Metal"REM DATE 2014REM DISCID 740B470AREM COMMENT "ExactAudioCopy v1.5"PERFORMER "Легенда"TITLE "Достать до звёзд"REM COMPOSER "Легенда"FILE "Легенда - Достать до звёзд.flac" WAVE TRACK 01 AUDIO TITLE "Чёрный флаг" PERFORMER "Легенда" REM COMPOSER "Легенда" INDEX 01 00:00:00 TRACK 02 AUDIO TITLE "Игрок" PERFORMER "Легенда" REM COMPOSER "Легенда" INDEX 01 04:10:00 TRACK 03 AUDIO TITLE "Паяц" PERFORMER "Легенда" REM COMPOSER "Легенда" INDEX 01 08:33:48 TRACK 04 AUDIO TITLE "Полёт" PERFORMER "Легенда" REM COMPOSER "Легенда" INDEX 01 14:09:56 TRACK 05 AUDIO TITLE "Обнажённый свет" PERFORMER "Легенда" REM COMPOSER "Легенда" INDEX 01 19:08:18 TRACK 06 AUDIO TITLE "Время" PERFORMER "Легенда" REM COMPOSER "Легенда" INDEX 01 24:06:64 TRACK 07 AUDIO TITLE "Другие пути" PERFORMER "Легенда" REM COMPOSER "Легенда" INDEX 01 29:34:53 TRACK 08 AUDIO TITLE "Достать до звёзд" PERFORMER "Легенда" REM COMPOSER "Легенда" INDEX 01 33:27:11 TRACK 09 AUDIO TITLE "Ночь пройдёт" PERFORMER "Легенда" REM COMPOSER "Легенда" INDEX 01 38:39:47 TRACK 10 AUDIO TITLE "Перепиши заново жизнь" PERFORMER "Легенда" REM COMPOSER "Легенда" INDEX 01 43:35:70

[/spoiler]

[spoiler=Об альбоме (сборнике)]https://vs-baronin.livejournal.com/895398.html
http://musicscore.ms/reviews/1406/page/1?lang=ru[/spoiler]




[spoiler=Содержание индексной карты (.CUE)]

REM GENRE "Heavy Metal"REM DATE 2018REM DISCID 6908F208REM COMMENT "ExactAudioCopy v1.3"PERFORMER "Легенда"TITLE "Неоспоримый"REM COMPOSER "Легенда"FILE "Легенда - Неоспоримый.flac" WAVE TRACK 01 AUDIO TITLE "Неоспоримый" PERFORMER "Легенда" REM COMPOSER "Легенда" INDEX 01 00:00:00 TRACK 02 AUDIO TITLE "Крылья" PERFORMER "Легенда" REM COMPOSER "Легенда" INDEX 01 05:05:15 TRACK 03 AUDIO TITLE "Монте-Кристо" PERFORMER "Легенда" REM COMPOSER "Легенда" INDEX 01 09:18:40 TRACK 04 AUDIO TITLE "Шторм" PERFORMER "Легенда" REM COMPOSER "Легенда" INDEX 01 13:57:21 TRACK 05 AUDIO TITLE "Час мёртвых" PERFORMER "Легенда" REM COMPOSER "Легенда" INDEX 01 18:11:21 TRACK 06 AUDIO TITLE "Роза ветров" PERFORMER "Легенда" REM COMPOSER "Легенда" INDEX 01 24:39:05 TRACK 07 AUDIO TITLE "Я и ты" PERFORMER "Легенда" REM COMPOSER "Легенда" INDEX 01 29:55:69 TRACK 08 AUDIO TITLE "Прощай" PERFORMER "Легенда" REM COMPOSER "Легенда" INDEX 01 34:30:66

[/spoiler]

[spoiler=Об альбоме (сборнике)]"ЛЕГЕНДА" уже несколько лет гордо несет знамя heavy / power metal на просторах Москвы и области (сама группа из Балашихи). Мужественные песни, плотный звук, добротный вокал отличают оба альбома коллектива. Последний, "Неоспоримый", вышел около года назад и получил хвалебные отзывы от любителей качественного мелодичного металла с текстами на русском языке. ( https://vk.com/wall430127992 )[/spoiler]



Всего комментариев: 0
Добавлять комментарии могут только зарегистрированные пользователи.
[ Регистрация | Вход ]

Опрос

Хотели бы вы вернуть СССР ?
Всего ответов: 614