Пароль:
Войти
МУЗЫКА/MUSIC ИГРЫ/GAMES ВИДЕО/VIDEO

Разделы сайта

Статистика

Всего
Польз.
Гости
Онлайн всего: 28
Гостей: 28
Пользователей: 0
fayfa
Администраторы
10381
katrin
Модераторы
8375
Nik
VIP пользователи
8237
stigmata
Администраторы
7905
Vanok
VIP пользователи
4474

Онлайн радио

Каталог торрентов

35
Пиды
68
Сиды

Эмиль Горовец - Поет Эмиль Горовец II (1966) [FLAC 1.0|96/24|image +.cue|Vinyl-Rip] Pop

Добавил: Nik Дата: 29 Nov 2019 Просмотров: 14
Скачать Эмиль Горовец - Поет Эмиль Горовец II (1966) [FLAC 1.0|96/24|i

Автор рипа: samopal records
Жанр: Pop
Продолжительность: 00:25:08
Издатель (лейбл): Мелодия
Страна: USSR
Номер по каталогу: Д-17523-4
Кодек: FLAC (image + .cue)
Формат записи: 24/192
Формат раздачи: 24/96 (mono)
Реальные значения DR: DR13
Источник: Vinyl, 10", Mono, Album
Треклист:
A1 Двадцатый Век
A2 Твоя Любовь
A3 Смоленский Мальчишка
A4 Белая Береза
A5 Королева Красоты
B1 Любовь
B2 Вернись
B3 Алло, Долли
B4 Ирена
B5 Кузина

Инстр. Ансамбль п/у И. Кондакова




[spoiler=Отчёт Dynamic Range Meter (DR13):]
foobar2000 1.1.3 / Dynamic Range Meter 1.1.1
log date: 2019-11-27 10:53:58

--------------------------------------------------------------------------------
Analyzed: Эмиль Горовец / Поёт Эмиль Горовец II
--------------------------------------------------------------------------------

DR Peak RMS Duration Track
--------------------------------------------------------------------------------
DR14 -1.88 dB -20.11 dB 3:06 ?-А1 Двадцатый век
DR13 -1.75 dB -19.33 dB 2:29 ?-A2 Твоя Любовь
DR15 -0.70 dB -20.36 dB 3:18 ?-A3 Смоленский Мальчишка
DR12 -2.81 dB -19.84 dB 2:44 ?-A4 Белая Береза
DR13 -1.08 dB -17.84 dB 2:39 ?-A5 Королева Красоты
DR11 -1.09 dB -16.59 dB 2:29 ?-B1 Любовь
DR11 -0.50 dB -16.09 dB 3:56 ?-B2 Вернись
DR12 -0.18 dB -17.14 dB 2:34 ?-B3 Алло, Долли
DR12 -1.26 dB -16.58 dB 2:38 ?-B4 Ирена
DR14 -0.54 dB -17.52 dB 2:58 ?-B5 Кузина
--------------------------------------------------------------------------------

Number of tracks: 10
Official DR value: DR13

Samplerate: 96000 Hz
Channels: 1
Bits per sample: 24
Bitrate: 1218 kbps
Codec: FLAC
================================================================================
[/spoiler]



[c][/c]
Всего комментариев: 0
Добавлять комментарии могут только зарегистрированные пользователи.
[ Регистрация | Вход ]

Опрос

Хотели бы вы вернуть СССР ?
Всего ответов: 548