Пароль:
Войти
МУЗЫКА/MUSIC ИГРЫ/GAMES ВИДЕО/VIDEO

Разделы сайта

Статистика

Всего
Польз.
Гости
Онлайн всего: 55
Гостей: 55
Пользователей: 0
fayfa
Администраторы
10381
katrin
Модераторы
8375
Nik
VIP пользователи
8237
stigmata
Администраторы
7905
Vanok
VIP пользователи
4474

Онлайн радио

Каталог торрентов

69
Пиды
126
Сиды

Bersarin Quartett - Discography 5 Releases (2008-2019) Denovali Records [FLAC|Lossless|tracks+.cue, tracks] Dark Ambient, Modern Classic ...

Добавил: vika0509 Дата: 25 Nov 2019 Просмотров: 23
Bersarin Quartett [color=#CD6090]Discography
[/color]
Скачать Bersarin Quartett - Discography 5 Releases (2008-2019) Denoval

Томас Бюкер (Thomas Bücker) — немецкий электронный музыкант из Мюнстера, выпустивший в 2008 году первый альбом в жанре эмбиента под псевдонимом Bersarin Quartett. Музыка «Квартета Берзарина» эмоциональна, меланхолична и кинематографична, в то время как под псевдонимом Jean-Michel.
Томас сочиняет ритмичную электронную музыку иной эмоциональной окраски (IDM большая часть творчества).

Жанр: Dark Ambient, Modern Classical, Ambient • Страна: Germany • Год издания: 2008-2019 • Лейбл: Denovali Records
Аудиокодек: FLAC (*.flac) • Тип рипа: tracks+.cue, tracks • Битрейт аудио: lossless • Продолжительность: 04:51:12
Треклист:

[spoiler=2008 Bersarin Quartett (CD)]

Продолжительноcть: 00:58:14
Треклист:

01. Oktober (6:26)
02. Geschichten Von Interesse (4:56)
03. Inversion (5:42)
04. St. Petersburg (5:16)
05. Und Die Welt Steht Still (8:52)
06. Die Dinge Sind Nie So Wie Sie Sind (8:05)
07. Nachtblind (4:04)
08. Es Kann Nicht Ewig Winter Sein (4:28)
09. Endlich Am Ziel (4:38)
10. Mehr Als Alles Andere (5:47)
Exact Audio Copy V0.99 prebeta 4 from 23. January 2008

EAC extraction logfile from 25. January 2009, 10:34

Bersarin Quartett / Bersarin Quartett

Used drive : PIONEER DVD-RW DVR-110D Adapter: 0 ID: 1

Read mode : Secure
Utilize accurate stream : Yes
Defeat audio cache : Yes
Make use of C2 pointers : No

Read offset correction : 48
Overread into Lead-In and Lead-Out : No
Fill up missing offset samples with silence : Yes
Delete leading and trailing silent blocks : No
Null samples used in CRC calculations : Yes
Used interface : Installed external ASPI interface
Gap handling : Appended to previous track

Used output format : User Defined Encoder
Selected bitrate : 128 kBit/s
Quality : High
Add ID3 tag : No
Command line compressor : C:Program FilesExact Audio CopyFlacflac.exe
Additional command line options : -V -8 -T "artist=%a" -T "title=%t" -T "album=%g" -T "date=%y" -T "tracknumber=%n" -T "genre=%m" %s

TOC of the extracted CD

Track | Start | Length | Start sector | End sector
---------------------------------------------------------
1 | 0:00.00 | 6:26.15 | 0 | 28964
2 | 6:26.15 | 4:55.68 | 28965 | 51157
3 | 11:22.08 | 5:42.33 | 51158 | 76840
4 | 17:04.41 | 5:16.11 | 76841 | 100551
5 | 22:20.52 | 8:51.39 | 100552 | 140415
6 | 31:12.16 | 8:04.50 | 140416 | 176765
7 | 39:16.66 | 4:03.60 | 176766 | 195050
8 | 43:20.51 | 4:27.69 | 195051 | 215144
9 | 47:48.45 | 4:38.31 | 215145 | 236025
10 | 52:27.01 | 5:47.33 | 236026 | 262083

Track 1

Filename F:MusicBersarin Quartett(2008) Bersarin Quartett1 - Oktober.wav

Pre-gap length 0:00:02.00

Peak level 100.0 %
Track quality 99.9 %
Test CRC A17BC7B2
Copy CRC A17BC7B2
Track not present in AccurateRip database
Copy OK

Track 2

Filename F:MusicBersarin Quartett(2008) Bersarin Quartett2 - Geschichten Von Interesse.wav

Pre-gap length 0:00:00.73

Peak level 100.0 %
Track quality 100.0 %
Test CRC 79C1B6AF
Copy CRC 79C1B6AF
Track not present in AccurateRip database
Copy OK

Track 3

Filename F:MusicBersarin Quartett(2008) Bersarin Quartett3 - Inversion.wav

Peak level 98.4 %
Track quality 100.0 %
Test CRC ED49AC30
Copy CRC ED49AC30
Track not present in AccurateRip database
Copy OK

Track 4

Filename F:MusicBersarin Quartett(2008) Bersarin Quartett4 - St Petersburg.wav

Pre-gap length 0:00:01.46

Peak level 98.0 %
Track quality 100.0 %
Test CRC B653770E
Copy CRC B653770E
Track not present in AccurateRip database
Copy OK

Track 5

Filename F:MusicBersarin Quartett(2008) Bersarin Quartett5 - Und Die Welt Steht Still.wav

Pre-gap length 0:00:01.18

Peak level 97.2 %
Track quality 100.0 %
Test CRC 3CC5C452
Copy CRC 3CC5C452
Track not present in AccurateRip database
Copy OK

Track 6

Filename F:MusicBersarin Quartett(2008) Bersarin Quartett6 - Die Dinge Sind Nie So Wie Sie Sind.wav

Pre-gap length 0:00:00.41

Peak level 100.0 %
Track quality 100.0 %
Test CRC 77BD04E2
Copy CRC 77BD04E2
Track not present in AccurateRip database
Copy OK

Track 7

Filename F:MusicBersarin Quartett(2008) Bersarin Quartett7 - Nachtblind.wav

Pre-gap length 0:00:01.28

Peak level 100.0 %
Track quality 100.0 %
Test CRC 56B98151
Copy CRC 56B98151
Track not present in AccurateRip database
Copy OK

Track 8

Filename F:MusicBersarin Quartett(2008) Bersarin Quartett8 - Es Kann Nicht Ewig Winter Sein.wav

Pre-gap length 0:00:01.64

Peak level 95.4 %
Track quality 100.0 %
Test CRC 640CE2EA
Copy CRC 640CE2EA
Track not present in AccurateRip database
Copy OK

Track 9

Filename F:MusicBersarin Quartett(2008) Bersarin Quartett9 - Endlich Am Ziel.wav

Peak level 98.1 %
Track quality 100.0 %
Test CRC 9A830B3A
Copy CRC 9A830B3A
Track not present in AccurateRip database
Copy OK

Track 10

Filename F:MusicBersarin Quartett(2008) Bersarin Quartett10 - Mehr Als Alles Andere.wav

Pre-gap length 0:00:00.41

Peak level 96.7 %
Track quality 100.0 %
Test CRC 7838990A
Copy CRC 7838990A
Track not present in AccurateRip database
Copy OK

None of the tracks are present in the AccurateRip database

No errors occurred

End of status report

[/spoiler]

[spoiler=2010 Bersarin Quartett (Reissue, Denovali Records) (CD) ]

Год выпуска: 2010
Продолжительноcть: 00:58:18
Треклист:

01. Oktober (06:27)
02. Geschichten Von Interesse (04:56)
03. Inversion (05:42)
04. St. Petersburg (05:16)
05. Und Die Welt Steht Still (08:52)
06. Die Dinge Sind Nie So Wie Sie Sind (08:05)
07. Nachtblind (04:04)
08. Es Kann Nicht Ewig Winter Sein (04:28)
09. Endlich Am Ziel (04:39)
10. Mehr Als Alles Andere (05:49)
Exact Audio Copy V1.1 from 23. June 2015

EAC extraction logfile from 6. July 2015, 15:37

Bersarin Quartett / Bersarin Quartett

Used drive : TSSTcorpCDDVDW TS-H653N Adapter: 1 ID: 0

Read mode : Secure
Utilize accurate stream : Yes
Defeat audio cache : Yes
Make use of C2 pointers : No

Read offset correction : 6
Overread into Lead-In and Lead-Out : No
Fill up missing offset samples with silence : Yes
Delete leading and trailing silent blocks : No
Null samples used in CRC calculations : Yes
Used interface : Native Win32 interface for Win NT & 2000
Gap handling : Appended to previous track

Used output format : User Defined Encoder
Selected bitrate : 896 kBit/s
Quality : High
Add ID3 tag : No
Command line compressor : C:Program FilesExact Audio CopyFlacflac.exe
Additional command line options : -8 -V -T "ARTIST=%artist%" -T "TITLE=%title%" -T "ALBUM=%albumtitle%" -T "DATE=%year%" -T "TRACKNUMBER=%tracknr%" -T "TOTALTRACKS=%numtracks%" -T "GENRE=%genre%" -T "ALBUMARTIST=%albumartist%" -T "ALBUM ARTIST=%albumartist%" -T "COMMENT=EAC Secure Mode, Test & Copy, AccurateRip, FLAC -8" %source%

TOC of the extracted CD

Track | Start | Length | Start sector | End sector
---------------------------------------------------------
1 | 0:00.00 | 6:26.65 | 0 | 29014
2 | 6:26.65 | 4:55.68 | 29015 | 51207
3 | 11:22.58 | 5:42.33 | 51208 | 76890
4 | 17:05.16 | 5:16.11 | 76891 | 100601
5 | 22:21.27 | 8:51.39 | 100602 | 140465
6 | 31:12.66 | 8:04.50 | 140466 | 176815
7 | 39:17.41 | 4:03.60 | 176816 | 195100
8 | 43:21.26 | 4:27.48 | 195101 | 215173
9 | 47:48.74 | 4:38.52 | 215174 | 236075
10 | 52:27.51 | 5:49.24 | 236076 | 262274

Track 1

Filename C:UsersJohnMusicBersarin Quartett - Bersarin Quartett (2007) [FLAC] {denovali den48}1 - Oktober.wav

Pre-gap length 0:00:02.00

Peak level 100.0 %
Extraction speed 2.2 X
Track quality 100.0 %
Test CRC 061CFD49
Copy CRC 061CFD49
Cannot be verified as accurate (confidence 2) [72F65077], AccurateRip returned [D9A1BD21] (AR v2)
Copy OK

Track 2

Filename C:UsersJohnMusicBersarin Quartett - Bersarin Quartett (2007) [FLAC] {denovali den48}2 - Geschichten von Interesse.wav

Peak level 100.0 %
Extraction speed 2.2 X
Track quality 100.0 %
Test CRC 18239FE3
Copy CRC 18239FE3
Cannot be verified as accurate (confidence 2) [341B347F], AccurateRip returned [4BC9AA93] (AR v2)
Copy OK

Track 3

Filename C:UsersJohnMusicBersarin Quartett - Bersarin Quartett (2007) [FLAC] {denovali den48}3 - Inversion.wav

Peak level 98.4 %
Extraction speed 2.2 X
Track quality 100.0 %
Test CRC 6E3E339A
Copy CRC 6E3E339A
Cannot be verified as accurate (confidence 2) [28F4A71F], AccurateRip returned [3763FD76] (AR v2)
Copy OK

Track 4

Filename C:UsersJohnMusicBersarin Quartett - Bersarin Quartett (2007) [FLAC] {denovali den48}4 - St. Petersburg.wav

Peak level 98.0 %
Extraction speed 2.2 X
Track quality 100.0 %
Test CRC AC401A0B
Copy CRC AC401A0B
Cannot be verified as accurate (confidence 2) [45CF1FCB], AccurateRip returned [C02ADFDD] (AR v2)
Copy OK

Track 5

Filename C:UsersJohnMusicBersarin Quartett - Bersarin Quartett (2007) [FLAC] {denovali den48}5 - Und die Welt steht still.wav

Peak level 97.2 %
Extraction speed 2.1 X
Track quality 99.9 %
Test CRC D6EE6D96
Copy CRC D6EE6D96
Cannot be verified as accurate (confidence 2) [6FEDE0EA], AccurateRip returned [353298A1] (AR v2)
Copy OK

Track 6

Filename C:UsersJohnMusicBersarin Quartett - Bersarin Quartett (2007) [FLAC] {denovali den48}6 - Die Dinge sind nie so wie sie sind.wav

Peak level 100.0 %
Extraction speed 2.2 X
Track quality 100.0 %
Test CRC 78631E9D
Copy CRC 78631E9D
Cannot be verified as accurate (confidence 2) [93E8554E], AccurateRip returned [D8E0E308] (AR v2)
Copy OK

Track 7

Filename C:UsersJohnMusicBersarin Quartett - Bersarin Quartett (2007) [FLAC] {denovali den48}7 - Nachtblind.wav

Peak level 100.0 %
Extraction speed 2.1 X
Track quality 100.0 %
Test CRC CC4C3071
Copy CRC CC4C3071
Cannot be verified as accurate (confidence 2) [0108D16B], AccurateRip returned [DD8A7C23] (AR v2)
Copy OK

Track 8

Filename C:UsersJohnMusicBersarin Quartett - Bersarin Quartett (2007) [FLAC] {denovali den48}8 - Es kann nicht ewig Winter sein.wav

Peak level 95.4 %
Extraction speed 2.1 X
Track quality 100.0 %
Test CRC AF13768A
Copy CRC AF13768A
Cannot be verified as accurate (confidence 2) [5D340D74], AccurateRip returned [636D8DBC] (AR v2)
Copy OK

Track 9

Filename C:UsersJohnMusicBersarin Quartett - Bersarin Quartett (2007) [FLAC] {denovali den48}9 - Endlich am Ziel.wav

Peak level 98.1 %
Extraction speed 2.1 X
Track quality 100.0 %
Test CRC 287093F1
Copy CRC 287093F1
Cannot be verified as accurate (confidence 2) [8E6088F8], AccurateRip returned [64D08C5A] (AR v2)
Copy OK

Track 10

Filename C:UsersJohnMusicBersarin Quartett - Bersarin Quartett (2007) [FLAC] {denovali den48}10 - Mehr als alles andere.wav

Peak level 96.7 %
Extraction speed 2.2 X
Track quality 100.0 %
Test CRC BC2193EE
Copy CRC BC2193EE
Cannot be verified as accurate (confidence 2) [7B3B12D6], AccurateRip returned [42CC9577] (AR v2)
Copy OK

No tracks could be verified as accurate
You may have a different pressing from the one(s) in the database

No errors occurred

End of status report

---- CUETools DB Plugin V2.1.6

[CTDB TOCID: dfqqHoSxQs7YT8DL4f2uk5PCZ.I-] found
Submit result: dfqqHoSxQs7YT8DL4f2uk5PCZ.I- has been confirmed
Track | CTDB Status
1 | (4/4) Accurately ripped
2 | (4/4) Accurately ripped
3 | (4/4) Accurately ripped
4 | (4/4) Accurately ripped
5 | (4/4) Accurately ripped
6 | (4/4) Accurately ripped
7 | (4/4) Accurately ripped
8 | (4/4) Accurately ripped
9 | (4/4) Accurately ripped
10 | (4/4) Accurately ripped

==== Log checksum AB93ACA31626013574A700B1DC8BFACE69C5D4C9C43A32CF4E7CA414CF92D7A7 ====[/spoiler]

[spoiler=2012 II (CD)]

Продолжительноcть: 01:09:46
Треклист:

01. Niemals Zurück (5:18)
02. Zum Greifen Nah (5:55)
03. Im Lichte Des Anderen (6:14)
04. Der Mond, Der Schnee Und Du (4:55)
05. Perlen, Honig Oder Untergang (4:36)
06. Einsame Wandern Still Im Sternensaal (5:09)
07. Im Glanze Der Kometen (6:09)
08. Alles Ist Ein Wunder (2:46)
09. Rot Und Schwarz (7:11)
10. Keine Angst (3:12)
11. Hier Und Jetzt (6:21)
12. Jedem Zauber Wohnt Ein Ende Inne (5:33)
Exact Audio Copy V1.0 beta 3 from 29. August 2011

EAC extraction logfile from 27. April 2012, 17:19

Bersarin Quartett / II

Used drive : HL-DT-STDVDRAM GP40LB10 Adapter: 1 ID: 0

Read mode : Secure
Utilize accurate stream : Yes
Defeat audio cache : Yes
Make use of C2 pointers : No

Read offset correction : 6
Overread into Lead-In and Lead-Out : No
Fill up missing offset samples with silence : Yes
Delete leading and trailing silent blocks : No
Null samples used in CRC calculations : Yes
Used interface : Native Win32 interface for Win NT & 2000
Gap handling : Appended to previous track

Used output format : User Defined Encoder
Selected bitrate : 768 kBit/s
Quality : High
Add ID3 tag : No
Command line compressor : C:Program Files (x86)Exact Audio CopyFLACFLAC.EXE
Additional command line options : -6 -V -T "ARTIST=%artist%" -T "TITLE=%title%" -T "ALBUM=%albumtitle%" -T "DATE=%year%" -T "TRACKNUMBER=%tracknr%" -T "GENRE=%genre%" -T "COMMENT=%comment%" -T "BAND=%albuminterpret%" -T "COMPOSER=%composer%" %haslyrics%--tag-from-file=LYRICS="%lyricsfile%"%haslyrics% -T "DISCNUMBER=%cdnumber%" -T "TOTALDISCS=%totalcds%" -T "TOTALTRACKS=%numtracks%" %hascover%--picture="%coverfile%"%hascover% %source% -o %dest%

TOC of the extracted CD

Track | Start | Length | Start sector | End sector
---------------------------------------------------------
1 | 0:00.00 | 5:17.66 | 0 | 23840
2 | 5:17.66 | 5:54.42 | 23841 | 50432
3 | 11:12.33 | 6:14.06 | 50433 | 78488
4 | 17:26.39 | 4:55.31 | 78489 | 100644
5 | 22:21.70 | 4:36.29 | 100645 | 121373
6 | 26:58.24 | 5:08.74 | 121374 | 144547
7 | 32:07.23 | 6:09.11 | 144548 | 172233
8 | 38:16.34 | 2:46.08 | 172234 | 184691
9 | 41:02.42 | 7:10.59 | 184692 | 217000
10 | 48:13.26 | 3:11.51 | 217001 | 231376
11 | 51:25.02 | 6:21.02 | 231377 | 259953
12 | 57:46.04 | 5:32.62 | 259954 | 284915

Track 1

Filename I:Music3Bersarin Quartett - II (2012) FLAC1 - Niemals zuruck.wav

Pre-gap length 0:00:02.00

Peak level 100.0 %
Extraction speed 1.2 X
Track quality 100.0 %
Test CRC FD1534CD
Copy CRC FD1534CD
Track not present in AccurateRip database
Copy OK

Track 2

Filename I:Music3Bersarin Quartett - II (2012) FLAC2 - Zum Greifen nah.wav

Peak level 100.0 %
Extraction speed 1.3 X
Track quality 99.9 %
Test CRC BFCD5418
Copy CRC BFCD5418
Track not present in AccurateRip database
Copy OK

Track 3

Filename I:Music3Bersarin Quartett - II (2012) FLAC3 - Im Lichte des Anderen.wav

Peak level 100.0 %
Extraction speed 1.6 X
Track quality 100.0 %
Test CRC 0B6A9F2A
Copy CRC 0B6A9F2A
Track not present in AccurateRip database
Copy OK

Track 4

Filename I:Music3Bersarin Quartett - II (2012) FLAC4 - Der Mond, der Schnee und Du.wav

Peak level 100.0 %
Extraction speed 1.7 X
Track quality 100.0 %
Test CRC CC9B9B6B
Copy CRC CC9B9B6B
Track not present in AccurateRip database
Copy OK

Track 5

Filename I:Music3Bersarin Quartett - II (2012) FLAC5 - Perlen, Honig oder Untergang.wav

Peak level 100.0 %
Extraction speed 1.8 X
Track quality 100.0 %
Test CRC B654EA9C
Copy CRC B654EA9C
Track not present in AccurateRip database
Copy OK

Track 6

Filename I:Music3Bersarin Quartett - II (2012) FLAC6 - Einsame wandeln still im Sternensaal.wav

Peak level 100.0 %
Extraction speed 1.9 X
Track quality 100.0 %
Test CRC CAD63484
Copy CRC CAD63484
Track not present in AccurateRip database
Copy OK

Track 7

Filename I:Music3Bersarin Quartett - II (2012) FLAC7 - Im Glanze der Kometen.wav

Peak level 100.0 %
Extraction speed 1.9 X
Track quality 99.9 %
Test CRC 234EF49F
Copy CRC 234EF49F
Track not present in AccurateRip database
Copy OK

Track 8

Filename I:Music3Bersarin Quartett - II (2012) FLAC8 - Alles ist ein Wunder.wav

Peak level 100.0 %
Extraction speed 1.9 X
Track quality 100.0 %
Test CRC 29B06E11
Copy CRC 29B06E11
Track not present in AccurateRip database
Copy OK

Track 9

Filename I:Music3Bersarin Quartett - II (2012) FLAC9 - Rot und Schwarz.wav

Peak level 100.0 %
Extraction speed 2.2 X
Track quality 100.0 %
Test CRC 3763736C
Copy CRC 3763736C
Track not present in AccurateRip database
Copy OK

Track 10

Filename I:Music3Bersarin Quartett - II (2012) FLAC10 - Keine Angst.wav

Peak level 100.0 %
Extraction speed 2.1 X
Track quality 100.0 %
Test CRC 72606B0B
Copy CRC 72606B0B
Track not present in AccurateRip database
Copy OK

Track 11

Filename I:Music3Bersarin Quartett - II (2012) FLAC11 - Hier und jetzt.wav

Peak level 100.0 %
Extraction speed 2.4 X
Track quality 100.0 %
Test CRC 784EB3AF
Copy CRC 784EB3AF
Track not present in AccurateRip database
Copy OK

Track 12

Filename I:Music3Bersarin Quartett - II (2012) FLAC12 - Jedem Zauber wohnt ein Ende inne.wav

Peak level 100.0 %
Extraction speed 2.5 X
Track quality 100.0 %
Test CRC BAD47292
Copy CRC BAD47292
Track not present in AccurateRip database
Copy OK

None of the tracks are present in the AccurateRip database

No errors occurred

End of status report

==== Log checksum D8B29F0DEAD4E8C686E504654DA6E61A626FC6A97F7EB246C45D51D0F554E4F0 ====

[/spoiler]

[spoiler=2015 III (CD) ]

Продолжительноcть: 00:53:25
Треклист:

01. Verflossen Ist Das Gold Der Tage (03:34)
02. Staub Und Sterne (04:31)
03. Hinter Uns Die Wirklichkeit (04:14)
04. Bedingungslos (04:17)
05. Die Nachte Sind Erfullt Von Maskenfesten (05:11)
06. Umschlungen Von Milliarden (04:48)
07. Sanft Verblassen Die Geschichten (03:09)
08. Es Ist Alles Schon Gesagt (04:55)
09. Schwarzer Regen Fallt (04:40)
10. Jeder Gedanke Umsonst Gedacht (05:12)
11. Welche Welt (05:37)
12. Ist Es Das, Was Du Willst (03:17)
Exact Audio Copy V1.0 beta 3 from 29. August 2011

EAC extraction logfile from 1. December 2015, 19:19

Bersarin Quartett / III

Used drive : TSSTcorpCDDVDW SH-222AB Adapter: 7 ID: 0

Read mode : Secure
Utilize accurate stream : Yes
Defeat audio cache : Yes
Make use of C2 pointers : No

Read offset correction : 6
Overread into Lead-In and Lead-Out : No
Fill up missing offset samples with silence : Yes
Delete leading and trailing silent blocks : No
Null samples used in CRC calculations : Yes
Used interface : Native Win32 interface for Win NT & 2000
Gap handling : Appended to previous track

Used output format : User Defined Encoder
Selected bitrate : 1024 kBit/s
Quality : High
Add ID3 tag : No
Command line compressor : C:Program Files (x86)Exact Audio CopyFlacflac.exe
Additional command line options : -8 -V -T "ARTIST=%artist%" -T "TITLE=%title%" -T "ALBUM=%albumtitle%" -T "DATE=%year%" -T "TRACKNUMBER=%tracknr1%" -T "GENRE=%genre%" -T "PERFORMER=%albuminterpret%" -T "COMPOSER=%composer%" %haslyrics%--tag-from-file=LYRICS="%lyricsfile%"%haslyrics% -T "ALBUMARTIST=%albumartist%" -T "DISCNUMBER=%cdnumber%" -T "TOTALDISCS=%totalcds%" -T "TOTALTRACKS=%numtracks%" -T "COMMENT=%comment%" %source% -o %dest%

TOC of the extracted CD

Track | Start | Length | Start sector | End sector
---------------------------------------------------------
1 | 0:00.00 | 3:33.48 | 0 | 16022
2 | 3:33.48 | 4:31.03 | 16023 | 36350
3 | 8:04.51 | 4:13.47 | 36351 | 55372
4 | 12:18.23 | 4:17.16 | 55373 | 74663
5 | 16:35.39 | 5:11.02 | 74664 | 97990
6 | 21:46.41 | 4:47.21 | 97991 | 119536
7 | 26:33.62 | 3:08.45 | 119537 | 133681
8 | 29:42.32 | 4:54.57 | 133682 | 155788
9 | 34:37.14 | 4:39.70 | 155789 | 176783
10 | 39:17.09 | 5:11.52 | 176784 | 200160
11 | 44:28.61 | 5:36.45 | 200161 | 225405
12 | 50:05.31 | 3:16.47 | 225406 | 240152

Track 1

Filename E:EACBersarin Quartett - III (2015) [FLAC]1 - Verflossen ist das Gold der Tage.wav

Pre-gap length 0:00:02.00

Peak level 99.2 %
Extraction speed 4.5 X
Track quality 100.0 %
Test CRC A5026DE3
Copy CRC A5026DE3
Track not present in AccurateRip database
Copy OK

Track 2

Filename E:EACBersarin Quartett - III (2015) [FLAC]2 - Staub und Sterne.wav

Peak level 99.4 %
Extraction speed 5.1 X
Track quality 100.0 %
Test CRC 331E99E2
Copy CRC 331E99E2
Track not present in AccurateRip database
Copy OK

Track 3

Filename E:EACBersarin Quartett - III (2015) [FLAC]3 - Hinter uns die Wirklichkeit.wav

Peak level 99.8 %
Extraction speed 4.5 X
Track quality 99.9 %
Test CRC DAD0374B
Copy CRC DAD0374B
Track not present in AccurateRip database
Copy OK

Track 4

Filename E:EACBersarin Quartett - III (2015) [FLAC]4 - Bedingungslos.wav

Peak level 99.4 %
Extraction speed 5.9 X
Track quality 100.0 %
Test CRC 41FCA6A2
Copy CRC 41FCA6A2
Track not present in AccurateRip database
Copy OK

Track 5

Filename E:EACBersarin Quartett - III (2015) [FLAC]5 - Die Nächte sind erfüllt von Maskenfesten.wav

Peak level 99.2 %
Extraction speed 6.5 X
Track quality 100.0 %
Test CRC B9926AD4
Copy CRC B9926AD4
Track not present in AccurateRip database
Copy OK

Track 6

Filename E:EACBersarin Quartett - III (2015) [FLAC]6 - Umschlungen von Milliarden.wav

Peak level 99.1 %
Extraction speed 6.9 X
Track quality 100.0 %
Test CRC BFAD975B
Copy CRC BFAD975B
Track not present in AccurateRip database
Copy OK

Track 7

Filename E:EACBersarin Quartett - III (2015) [FLAC]7 - Sanft verblassen die Geschichten.wav

Peak level 99.1 %
Extraction speed 6.7 X
Track quality 100.0 %
Test CRC DC80DC51
Copy CRC DC80DC51
Track not present in AccurateRip database
Copy OK

Track 8

Filename E:EACBersarin Quartett - III (2015) [FLAC]8 - Es ist alles schon gesagt.wav

Peak level 99.5 %
Extraction speed 7.4 X
Track quality 100.0 %
Test CRC D8E3DBAE
Copy CRC D8E3DBAE
Track not present in AccurateRip database
Copy OK

Track 9

Filename E:EACBersarin Quartett - III (2015) [FLAC]9 - Schwarzer Regen fällt.wav

Peak level 99.6 %
Extraction speed 7.8 X
Track quality 100.0 %
Test CRC 9BB74A0E
Copy CRC 9BB74A0E
Track not present in AccurateRip database
Copy OK

Track 10

Filename E:EACBersarin Quartett - III (2015) [FLAC]10 - Jeder Gedanke umsonst gedacht.wav

Peak level 99.1 %
Extraction speed 8.2 X
Track quality 100.0 %
Test CRC 26053DCC
Copy CRC 26053DCC
Track not present in AccurateRip database
Copy OK

Track 11

Filename E:EACBersarin Quartett - III (2015) [FLAC]11 - Welche Welt.wav

Peak level 99.5 %
Extraction speed 8.6 X
Track quality 100.0 %
Test CRC 58223B41
Copy CRC 58223B41
Track not present in AccurateRip database
Copy OK

Track 12

Filename E:EACBersarin Quartett - III (2015) [FLAC]12 - Ist es das, was Du willst.wav

Peak level 99.3 %
Extraction speed 8.3 X
Track quality 100.0 %
Test CRC 1F8C4E3B
Copy CRC 1F8C4E3B
Track not present in AccurateRip database
Copy OK

None of the tracks are present in the AccurateRip database

No errors occurred

End of status report

---- CUETools DB Plugin V2.1.3

[CTDB TOCID: XH_gGS.Vf.wXD83pdiDujKHuAoU-] found, Submit result: XH_gGS.Vf.wXD83pdiDujKHuAoU- has been confirmed
[45d9965d] (2/2) Accurately ripped

==== Log checksum 59C5C7CB4D2A9A68635FDAA141911E70C2A8891DB36A8A077109F45BF0EBDA2F ====

[/spoiler]

[spoiler=2019 Methoden Und Maschinen (WEB) ]

Год выпуска: 2019
Продолжительноcть: 00:58:01
Треклист:

01. Prolog (02:29)
02. 2287 (03:58)
03. Bereit Fur Die Ewigkeit (03:13)
04. Das Ist Alles, Was Wir Haben (04:14)
05. Was Nicht Ist Und Niemals Sein Wird (04:37)
06. Siehst Du Das Auch (08:15)
07. Wenn Wir Nur Wollen (04:57)
08. Das Prinzip Der Entsprechung (04:26)
09. Wie Von Selbst (03:33)
10. Gegen Das Vergessen (04:20)
11. Nichts Zu Verlieren (05:27)
12. Ursache Und Wirkung (04:41)
13. Futur II (03:51)
-----------------------

DON'T MODIFY THIS FILE

-----------------------

PERFORMER: auCDtect Task Manager, ver. 1.6.0 RC1 build 1.6.0.1
Copyright © 2008-2010 y-soft. All rights reserved
http://y-soft.org

ANALYZER: auCDtect: CD records authenticity detector, version 0.8.2
Copyright © 2004 Oleg Berngardt. All rights reserved.
Copyright © 2004 Alexander Djourik. All rights reserved.

FILE: 13. Futur II.flac
Size: 20381871 Hash: 8B9A75DD8FC32C2B5507D0E1E73395A8 Accuracy: -m0
Conclusion: CDDA 43%
Signature: A428F851271CDC9F0316FEFDF9E4B37225FC1DD4
FILE: 12. Ursache Und Wirkung.flac
Size: 25297020 Hash: 3EE69DB4D91CDAA31A3E0C13B8C1C390 Accuracy: -m0
Conclusion: CDDA 100%
Signature: 99DA9D4919323A099D3252C8D9D64C5FBB95520A
FILE: 11. Nichts Zu Verlieren.flac
Size: 24989122 Hash: 2261BD715E646FE9C1C53A91D10DE173 Accuracy: -m0
Conclusion: CDDA 100%
Signature: EAE4DA6C1F25E665CF1AB4BB948F8BB37B522FF3
FILE: 10. Gegen Das Vergessen.flac
Size: 17677889 Hash: 7DDE2A464964F6B4C23F90282377A4C6 Accuracy: -m0
Conclusion: CDDA 100%
Signature: 7FC9E72D6BCA7AF9CA6CA0414B079FF225D2AC87
FILE: 09. Wie Von Selbst.flac
Size: 19947618 Hash: 51795AB0DCB7735DF7E9B2C6A85A893F Accuracy: -m0
Conclusion: CDDA 99%
Signature: 8836ECF6DA932CC6A45BF9111CC85015C46F05B8
FILE: 08. Das Prinzip Der Entsprechung.flac
Size: 20451404 Hash: 3DB3AA18483E7C3AD88027BA568E30C9 Accuracy: -m0
Conclusion: CDDA 100%
Signature: 0621671582A7E4F6EF6D167A53EE7DA41C7B188E
FILE: 07. Wenn Wir Nur Wollen.flac
Size: 24498774 Hash: 0ED4363919E4EDD6B216C5534A7D4A8A Accuracy: -m0
Conclusion: CDDA 58%
Signature: 50B294AD48B6FD9CA40616F0C6F2EF9E9A7FB403
FILE: 06. Siehst Du Das Auch.flac
Size: 30093985 Hash: B5C15BE20C691737458BE41CA0AF1499 Accuracy: -m0
Conclusion: CDDA 100%
Signature: C037FB8C55F378C49592DB5875E6EC53DA9F186E
FILE: 05. Was Nicht Ist Und Niemals Sein Wird.flac
Size: 20972805 Hash: C280428AB2C063696D761819BDCF829B Accuracy: -m0
Conclusion: CDDA 100%
Signature: 106E5BB8171D06A0520A6FBA2A870D9F8CC7C75D
FILE: 04. Das Ist Alles, Was Wir Haben.flac
Size: 25366282 Hash: EF82899E35AA5CEB2150B1729EF5495A Accuracy: -m0
Conclusion: CDDA 100%
Signature: 0FB8AE1CACED0FA81B1B9649E3AE78D6EE01A8FC
FILE: 03. Bereit Für Die Ewigkeit.flac
Size: 14690651 Hash: 730E4ED8ECFDC3FCB6E1592599BD60EF Accuracy: -m0
Conclusion: CDDA 86%
Signature: FB28332D65F9ADA19B32415F90712384F8EE935B
FILE: 02. 2287.flac
Size: 23340689 Hash: 79CC62396D4897ADEAF0144A641949FB Accuracy: -m0
Conclusion: CDDA 100%
Signature: C4A56BEB1C698FB025B53038870185F1B0768967
FILE: 01. Prolog.flac
Size: 9628542 Hash: 9C5E2C41EF9E6734E7EE2FFAAD3DBE95 Accuracy: -m0
Conclusion: CDDA 100%
Signature: 95449929F9ABA3F1765A986EEEFEB3A5648BAD75[/spoiler]
Время раздачи: 12/7
Всего комментариев: 0
Добавлять комментарии могут только зарегистрированные пользователи.
[ Регистрация | Вход ]

Опрос

Какой у вас браузер?
Всего ответов: 498