Пароль:
Войти
МУЗЫКА/MUSIC ИГРЫ/GAMES ВИДЕО/VIDEO

Статистика

Всего
Польз.
Гости
Онлайн всего: 21
Гостей: 21
Пользователей: 0
fayfa
Администраторы
10572
katrin
Модераторы
8407
Nik
VIP пользователи
8382
stigmata
Администраторы
8081
Vanok
VIP пользователи
4565

Онлайн радио

Каталог торрентов

27
Пиды
5
Сиды

Между нами, девочками (2013 - 2018) HDTV [H.264/1080i-LQ] (сезон 1-2, серии 1-36 из 36)

Добавил: Vanok Дата: 08 Jan 2020 Просмотров: 44
Скачать Между нами, девочками (2013 - 2018) HDTV [H.264/1080i-LQ] (сез

Производство: Россия, Украина / Грин Филмс, Лук-фильм
Жанр: комедия

Режиссер: Алексей Кирющенко
Актеры: Юлия Меньшова, Галина Петрова, Наталья Скоморохова, Валерий Гаркалин, Валерий Афанасьев, Митя Лабуш, Александр Никитин, Александр Карпов, Ирина Бякова, Андрей Бутин

Описание:
В провинциальном городе Тетюшеве живёт семья Кузнецовых-Сайко: Олеся (21 год, студентка художественного колледжа), её мама Елена (45 лет, начальник отдела снабжения в строительной компании) и бабушка Ираида Степановна (65 лет, исполнительница романсов и народных песен в местной филармонии).

У наших героинь разный характер и взгляды на жизнь, но всех их, кроме родственных уз, объединяет отсутствие личного женского счастья. Супруг Ираиды Степановны давно умер. Муж Елены — отец Олеси — лет десять назад ушёл из семьи, и Елена так больше и не вышла замуж. Только у Олеси есть молодой человек — Никита, но его существование Олеся скрывает.


Возраст: 12+ (зрителям, достигшим 12 лет)

Релиз от: MediaClub, Nikolspup

Продолжительность: ~00:50:00 серия
Качество видео: HDTV

Видео: AVC/H.264, 1920x1080, ~7088-7869 Kbps
Аудио: MP2, 2 ch, 192-256 Kbps

[spoiler=2 сезон, 3 серия]
Общее
Идентификатор : 1 (0x1)
Полное имя : S:datauploadМежду нами, девочкамиMezhdu.nami.devochkami.S02.2018.HDTV.(1080i).NikolspupMezhdu.nami.devochkami.S02.(03.seriya).2018.HDTV.(1080i).Nikolspup.ts
Формат : MPEG-TS
Размер файла : 2,75 Гбайт
Продолжительность : 51 м. 26 с.
Режим общего битрейта : Переменный
Общий поток : 7660 Кбит/сек

Видео
Идентификатор : 2911 (0xB5F)
Идентификатор меню : 1343 (0x53F)
Формат : AVC
Формат/Информация : Advanced Video Codec
Профиль формата : High@L4
Параметр CABAC формата : Да
Параметр ReFrames формата : 4 кадра
Идентификатор кодека : 27
Продолжительность : 51 м. 26 с.
Битрейт : 7088 Кбит/сек
Ширина : 1920 пикселей
Высота : 1080 пикселей
Соотношение сторон : 16:9
Частота кадров : 25,000 кадров/сек
Цветовое пространство : YUV
Субдискретизация насыщенности : 4:2:0
Битовая глубина : 8 бит
Тип развёртки : MBAFF
Порядок развёртки : Верхнее поле первое
Бит/(Пиксели*Кадры) : 0.137
Размер потока : 2,55 Гбайт (93%)

Аудио
Идентификатор : 2912 (0xB60)
Идентификатор меню : 1343 (0x53F)
Формат : MPEG Audio
Версия формата : Version 1
Профиль формата : Layer 2
Режим : Joint stereo
Расширение режима : Intensity Stereo + MS Stereo
Идентификатор кодека : 3
Продолжительность : 51 м. 26 с.
Вид битрейта : Постоянный
Битрейт : 192 Кбит/сек
Каналы : 2 канала
Частота : 48,0 КГц
Метод сжатия : С потерями
Размер потока : 70,6 Мбайт (3%)
Язык : Russian
[/spoiler]
Скриншоты:

Всего комментариев: 0
Добавлять комментарии могут только зарегистрированные пользователи.
[ Регистрация | Вход ]

Опрос

Хотели бы вы вернуть СССР ?
Всего ответов: 570