Пароль:
Войти
МУЗЫКА/MUSIC ИГРЫ/GAMES ВИДЕО/VIDEO

Статистика

Всего
Польз.
Гости
Онлайн всего: 11
Гостей: 11
Пользователей: 0
fayfa
Администраторы
10835
Nik
VIP пользователи
8588
katrin
Модераторы
8435
stigmata
Администраторы
8333
vika0509
Модераторы
4786

Онлайн радио

Каталог торрентов

65
Пиды
105
Сиды

Собачья жизнь / A Dog's Life (2017, 2019) BDRip [H.264/1080p] [Дилогия]

Добавил: stigmata Дата: 10 Feb 2020 Просмотров: 23
Скачать Собачья жизнь / A Dog's Life (2017, 2019) BDRip [H.264/1080p]

Производство: Индия, Гонконг, США, Китай / DreamWorks, Walden Media, Amblin Entertainment, Original Pictures
Жанр: Фэнтези, драма, комедия, приключения, семейный, экранизация

Режиссер: Лассе Халльстрём, Гейл Манкусо
Актеры: Джош Гэд, Дэннис Куэйд, Пегги Липтон, Кей Джей Апа, Брайс Гейзар, Джульет Райлэнс, Люк Кирби, Габриель Роз, Майкл Бофшевер, Бритт Робертсон, Эбби Райдер Фортсон, Бетти Гилпин, Кэтрин Прескотт, Марг Хельгенбергер, Джейк Мэнли, Даниэла Барбоза, Йен Чен, Генри Лау, Эмма Фольк, Джонни Галэки

Описание:
Собаки бывают разных пород, мастей и размеров. Они — наши самые верные и преданные друзья, а мы учим их хорошим манерам. Собаки всегда думают о нас, правда, иногда и о беконе. Все они каждый день провожают и встречают нас у порога в уверенности, что пока им есть, кого облизывать и любить, в их жизни есть смысл. Старый пес Бадди прожил несколько жизней, прежде чем воссоединиться со своим первым хозяином. Но на этом цепь его перерождений не оборвалась. Он возвращается в теле щенка, получает кличку Молли и выполняет новую миссию – принести счастье проблемной девочке-подростку СиДжей.

Релиз от: V_ad, HDReactor

Продолжительность: 01:40:02 / 01:48:39
Качество видео: BDRip
Перевод: Дублированный
Субтитры: Русские (полные, форсированные), английские (полные)

Видео: AVC/H.264, 1920х804, ~7000 Kbps
Аудио #1: Русский, AC3, 6 ch, 640 Kbps
Аудио #2: Английский, AC3, 6 ch, 448 Kbps
[spoiler=Собачья жизнь / A Dog's Purpose (2017)]

Производство: США, Amblin Entertainment, Original Pictures
Жанр: Комедия, Драма, Приключения, Семейный

Режиссер: Лассе Халльстрём
Актеры: Джош Гэд, Дэннис Куэйд, Пегги Липтон, Кей Джей Апа, Брайс Гейзар, Джульет Райлэнс, Люк Кирби, Габриель Роз, Майкл Бофшевер, Бритт Робертсон

Описание:
Собаки бывают разных пород, мастей и размеров. Они — наши самые верные и преданные друзья, а мы учим их хорошим манерам. Собаки всегда думают о нас, правда, иногда и о беконе. Все они каждый день провожают и встречают нас у порога в уверенности, что пока им есть, кого облизывать и любить, в их жизни есть смысл.



Возраст: 6+ (зрителям, достигшим 6 лет)
Рейтинг MPAA: PG (рекомендуется присутствие родителей)

Релиз от: V_ad, HDReactor
Продолжительность: 01:40:02
Качество видео: BDRip
Перевод: Дублированный
Субтитры: Русские (форсированные), английские (полные)

Видео: AVC/H.264, 1920х804, ~7347 Kbps
Аудио #1: Русский, AC3, 6 ch, 640 Kbps
Аудио #2: Английский, AC3, 6 ch, 448 Kbps
Полное имя : L:A.Dogs.Purpose.2017.BDRip.1080p.HDReactor.mkv
Формат : Matroska
Версия формата : Version 2
Размер файла : 5,90 Гбайт
Продолжительность : 1 ч. 40 м.
Общий поток : 8430 Кбит/сек
Название фильма : ~V ad~
Дата кодирования : UTC 2019-12-11 16:39:20
Программа кодирования : mkvmerge v6.5.0 ('Isn't she lovely') built on Oct 20 2013 12:50:05
Библиотека кодирования : libebml v1.3.0 + libmatroska v1.4.1
Обложка : Yes
Attachments : cover.jpg

Видео
Идентификатор : 1
Формат : AVC
Формат/Информация : Advanced Video Codec
Профиль формата : High@L4.1
Настройки формата : CABAC / 5 Ref Frames
Параметр CABAC формата : Да
Параметр RefFrames формата : 5 кадров
Идентификатор кодека : V_MPEG4/ISO/AVC
Продолжительность : 1 ч. 40 м.
Битрейт : 7347 Кбит/сек
Ширина : 1920 пикселей
Высота : 804 пикселя
Соотношение сторон : 2,40:1
Режим частоты кадров : Постоянный
Частота кадров : 23,976 (24000/1001) кадра/сек
Цветовое пространство : YUV
Субдискретизация насыщенности : 4:2:0
Битовая глубина : 8 бит
Тип развёртки : Прогрессивная
Бит/(Пиксели*Кадры) : 0.199
Размер потока : 5,02 Гбайт (85%)
Заголовок : ~V~
Библиотека кодирования : x264 core 148 r2744 b97ae06
Настройки программы : cabac=1 / ref=5 / deblock=1:-3:-3 / analyse=0x3:0x133 / me=umh / subme=11 / psy=1 / psy_rd=1.00:0.00 / mixed_ref=1 / me_range=40 / chroma_me=1 / trellis=2 / 8x8dct=1 / cqm=0 / deadzone=21,11 / fast_pskip=0 / chroma_qp_offset=-2 / threads=12 / lookahead_threads=1 / sliced_threads=0 / nr=0 / decimate=0 / interlaced=0 / bluray_compat=0 / constrained_intra=0 / bframes=10 / b_pyramid=2 / b_adapt=2 / b_bias=0 / direct=3 / weightb=1 / open_gop=0 / weightp=2 / keyint=240 / keyint_min=23 / scenecut=40 / intra_refresh=0 / rc=2pass / mbtree=0 / bitrate=7347 / ratetol=1.0 / qcomp=0.60 / qpmin=0 / qpmax=69 / qpstep=4 / cplxblur=20.0 / qblur=0.5 / ip_ratio=1.10 / pb_ratio=1.28 / aq=3:1.00
Язык : Английский
Default : Да
Forced : Нет

Аудио #1
Идентификатор : 2
Формат : AC-3
Формат/Информация : Audio Coding 3
Коммерческое название : Dolby Digital
Идентификатор кодека : A_AC3
Продолжительность : 1 ч. 40 м.
Вид битрейта : Постоянный
Битрейт : 640 Кбит/сек
Каналы : 6 каналов
Channel layout : L R C LFE Ls Rs
Частота : 48,0 КГц
Частота кадров : 31,250 кадров/сек (1536 SPF)
Битовая глубина : 16 бит
Метод сжатия : С потерями
Размер потока : 458 Мбайт (8%)
Заголовок : Dub
Язык : Русский
Service Kind : Complete Main
Default : Да
Forced : Нет

Аудио #2
Идентификатор : 3
Формат : AC-3
Формат/Информация : Audio Coding 3
Коммерческое название : Dolby Digital
Идентификатор кодека : A_AC3
Продолжительность : 1 ч. 40 м.
Вид битрейта : Постоянный
Битрейт : 448 Кбит/сек
Каналы : 6 каналов
Channel layout : L R C LFE Ls Rs
Частота : 48,0 КГц
Частота кадров : 31,250 кадров/сек (1536 SPF)
Битовая глубина : 16 бит
Метод сжатия : С потерями
Размер потока : 321 Мбайт (5%)
Язык : Английский
Service Kind : Complete Main
Default : Нет
Forced : Нет

Текст #1
Идентификатор : 4
Формат : UTF-8
Идентификатор кодека : S_TEXT/UTF8
Идентификатор кодека/Информация : UTF-8 Plain Text
Заголовок : Forced
Язык : Русский
Default : Да
Forced : Нет

Текст #2
Идентификатор : 5
Формат : UTF-8
Идентификатор кодека : S_TEXT/UTF8
Идентификатор кодека/Информация : UTF-8 Plain Text
Заголовок : Full
Язык : Русский
Default : Нет
Forced : Нет

Текст #3
Идентификатор : 6
Формат : UTF-8
Идентификатор кодека : S_TEXT/UTF8
Идентификатор кодека/Информация : UTF-8 Plain Text
Язык : Английский
Default : Нет
Forced : Нет

Меню
00:00:00.000 : en:Chapter 01
00:04:39.779 : en:Chapter 02
00:08:54.408 : en:Chapter 03
00:14:10.307 : en:Chapter 04
00:17:46.482 : en:Chapter 05
00:22:38.607 : en:Chapter 06
00:28:33.002 : en:Chapter 07
00:33:45.481 : en:Chapter 08
00:37:26.702 : en:Chapter 09
00:42:16.116 : en:Chapter 10
00:48:31.533 : en:Chapter 11
00:51:24.247 : en:Chapter 12
00:56:04.736 : en:Chapter 13
01:01:12.669 : en:Chapter 14
01:05:40.311 : en:Chapter 15
01:12:03.068 : en:Chapter 16
01:16:24.496 : en:Chapter 17
01:21:07.988 : en:Chapter 18
01:27:57.939 : en:Chapter 19
01:33:40.615 : en:Chapter 20
[/spoiler]


Скриншоты:



[spoiler=Собачья жизнь 2 / A Dog's Journey (2019)]

Производство: Индия, Гонконг, США, Китай, DreamWorks, Walden Media, Amblin Entertainment
Жанр: Фэнтези, драма, комедия, приключения, семейный

Режиссер: Гейл Манкусо
Актеры: Дэннис Куэйд, Эбби Райдер Фортсон, Бетти Гилпин, Кэтрин Прескотт, Марг Хельгенбергер, Джош Гэд, Джейк Мэнли, Даниэла Барбоза, Йен Чен, Генри Лау, Эмма Фольк, Джонни Галэки

Описание:
Старый пес Бадди прожил несколько жизней, прежде чем воссоединиться со своим первым хозяином. Но на этом цепь его перерождений не оборвалась. Он возвращается в теле щенка, получает кличку Молли и выполняет новую миссию – принести счастье проблемной девочке-подростку СиДжей.



Возраст: 12+ (зрителям, достигшим 12 лет)
Рейтинг MPAA: PG-13 (детям до 13 лет просмотр нежелателен)

Релиз от: V_ad, HDReactor

Продолжительность: 01:48:39
Качество видео: BDRip
Перевод: Дублированный
Субтитры: Русские (форсированные), английские (полные)

Видео: AVC/H.264, 1920х804, ~6.7 Mbps
Аудио #1: Русский, AC3, 6 ch, 640 Kbps
Аудио #2: Английский, AC3, 6 ch, 448 Kbps
Полное имя : L:A.Dogs.Journey.2019.BDRip.1080p.HDReactor.mkv
Формат : Matroska
Версия формата : Version 2
Размер файла : 5,90 Гбайт
Продолжительность : 1 ч. 48 м.
Общий поток : 7779 Кбит/сек
Название фильма : ~V ad~
Дата кодирования : UTC 2019-12-10 20:46:06
Программа кодирования : mkvmerge v6.5.0 ('Isn't she lovely') built on Oct 20 2013 12:50:05
Библиотека кодирования : libebml v1.3.0 + libmatroska v1.4.1
Обложка : Yes
Attachments : cover.jpg

Видео
Идентификатор : 1
Формат : AVC
Формат/Информация : Advanced Video Codec
Профиль формата : High@L4.1
Настройки формата : CABAC / 5 Ref Frames
Параметр CABAC формата : Да
Параметр RefFrames формата : 5 кадров
Идентификатор кодека : V_MPEG4/ISO/AVC
Продолжительность : 1 ч. 48 м.
Битрейт : 6689 Кбит/сек
Ширина : 1920 пикселей
Высота : 804 пикселя
Соотношение сторон : 2,40:1
Режим частоты кадров : Постоянный
Частота кадров : 23,976 (24000/1001) кадра/сек
Цветовое пространство : YUV
Субдискретизация насыщенности : 4:2:0
Битовая глубина : 8 бит
Тип развёртки : Прогрессивная
Бит/(Пиксели*Кадры) : 0.181
Размер потока : 4,96 Гбайт (84%)
Заголовок : ~V~
Библиотека кодирования : x264 core 158 r2984 3759fcb
Настройки программы : cabac=1 / ref=5 / deblock=1:-3:-3 / analyse=0x3:0x133 / me=umh / subme=11 / psy=1 / psy_rd=1.00:0.00 / mixed_ref=1 / me_range=40 / chroma_me=1 / trellis=2 / 8x8dct=1 / cqm=0 / deadzone=21,11 / fast_pskip=0 / chroma_qp_offset=-2 / threads=12 / lookahead_threads=1 / sliced_threads=0 / nr=0 / decimate=0 / interlaced=0 / bluray_compat=0 / constrained_intra=0 / bframes=10 / b_pyramid=2 / b_adapt=2 / b_bias=0 / direct=3 / weightb=1 / open_gop=0 / weightp=2 / keyint=240 / keyint_min=23 / scenecut=40 / intra_refresh=0 / rc=2pass / mbtree=0 / bitrate=6689 / ratetol=1.0 / qcomp=0.60 / qpmin=0 / qpmax=69 / qpstep=4 / cplxblur=20.0 / qblur=0.5 / ip_ratio=1.10 / pb_ratio=1.30 / aq=3:1.00
Язык : Английский
Default : Да
Forced : Нет

Аудио #1
Идентификатор : 2
Формат : AC-3
Формат/Информация : Audio Coding 3
Коммерческое название : Dolby Digital
Идентификатор кодека : A_AC3
Продолжительность : 1 ч. 48 м.
Вид битрейта : Постоянный
Битрейт : 640 Кбит/сек
Каналы : 6 каналов
Channel layout : L R C LFE Ls Rs
Частота : 48,0 КГц
Частота кадров : 31,250 кадров/сек (1536 SPF)
Битовая глубина : 16 бит
Метод сжатия : С потерями
Размер потока : 497 Мбайт (8%)
Заголовок : Dub
Язык : Русский
Service Kind : Complete Main
Default : Да
Forced : Нет

Аудио #2
Идентификатор : 3
Формат : AC-3
Формат/Информация : Audio Coding 3
Коммерческое название : Dolby Digital
Идентификатор кодека : A_AC3
Продолжительность : 1 ч. 48 м.
Вид битрейта : Постоянный
Битрейт : 448 Кбит/сек
Каналы : 6 каналов
Channel layout : L R C LFE Ls Rs
Частота : 48,0 КГц
Частота кадров : 31,250 кадров/сек (1536 SPF)
Битовая глубина : 16 бит
Метод сжатия : С потерями
Размер потока : 348 Мбайт (6%)
Язык : Английский
Service Kind : Complete Main
Default : Нет
Forced : Нет

Текст #1
Идентификатор : 4
Формат : UTF-8
Идентификатор кодека : S_TEXT/UTF8
Идентификатор кодека/Информация : UTF-8 Plain Text
Заголовок : Forced
Язык : Русский
Default : Да
Forced : Нет

Текст #2
Идентификатор : 5
Формат : UTF-8
Идентификатор кодека : S_TEXT/UTF8
Идентификатор кодека/Информация : UTF-8 Plain Text
Заголовок : Full
Язык : Русский
Default : Нет
Forced : Нет

Текст #3
Идентификатор : 6
Формат : UTF-8
Идентификатор кодека : S_TEXT/UTF8
Идентификатор кодека/Информация : UTF-8 Plain Text
Язык : Английский
Default : Нет
Forced : Нет

Меню
00:00:00.000 : en:: en:Chapter 01
00:04:55.795 : en:: en:Chapter 02
00:10:33.548 : en:: en:Chapter 03
00:15:06.028 : en:: en:Chapter 04
00:20:53.583 : en:: en:Chapter 05
00:26:01.140 : en:: en:Chapter 06
00:30:11.849 : en:: en:Chapter 07
00:35:15.277 : en:: en:Chapter 08
00:39:45.505 : en:: en:Chapter 09
00:43:08.749 : en:: en:Chapter 10
00:49:13.363 : en:: en:Chapter 11
00:56:55.616 : en:: en:Chapter 12
01:01:47.616 : en:: en:Chapter 13
01:07:37.090 : en:: en:Chapter 14
01:13:58.970 : en:: en:Chapter 15
01:20:46.752 : en:: en:Chapter 16
01:26:23.879 : en:: en:Chapter 17
01:28:29.796 : en:: en:Chapter 18
01:37:27.999 : en:: en:Chapter 19
01:42:07.528 : en:: en:Chapter 20
[/spoiler]


Скриншоты:



Скриншоты:


Производство: Индия, Гонконг, США, Китай / DreamWorks, Walden Media, Amblin Entertainment, Original Pictures
Жанр: Фэнтези, драма, комедия, приключения, семейный, экранизация

Режиссер: Лассе Халльстрём, Гейл Манкусо
Актеры: Джош Гэд, Дэннис Куэйд, Пегги Липтон, Кей Джей Апа, Брайс Гейзар, Джульет Райлэнс, Люк Кирби, Габриель Роз, Майкл Бофшевер, Бритт Робертсон, Эбби Райдер Фортсон, Бетти Гилпин, Кэтрин Прескотт, Марг Хельгенбергер, Джейк Мэнли, Даниэла Барбоза, Йен Чен, Генри Лау, Эмма Фольк, Джонни Галэки

Описание:
Собаки бывают разных пород, мастей и размеров. Они — наши самые верные и преданные друзья, а мы учим их хорошим манерам. Собаки всегда думают о нас, правда, иногда и о беконе. Все они каждый день провожают и встречают нас у порога в уверенности, что пока им есть, кого облизывать и любить, в их жизни есть смысл. Старый пес Бадди прожил несколько жизней, прежде чем воссоединиться со своим первым хозяином. Но на этом цепь его перерождений не оборвалась. Он возвращается в теле щенка, получает кличку Молли и выполняет новую миссию – принести счастье проблемной девочке-подростку СиДжей.

Продолжительность: 01:40:02 / 01:48:39
Качество видео: BDRip
Перевод: Дублированный
Субтитры: Русские (форсированные), английские (полные)
Всего комментариев: 0
Добавлять комментарии могут только зарегистрированные пользователи.
[ Регистрация | Вход ]

Опрос

Какой у вас браузер?
Всего ответов: 526