Пароль:
Войти
МУЗЫКА/MUSIC ИГРЫ/GAMES ВИДЕО/VIDEO

Статистика

Всего
Польз.
Гости
Онлайн всего: 33
Гостей: 32
Пользователей: 1
fayfa
Администраторы
10274
katrin
Модераторы
8359
Nik
VIP пользователи
8165
stigmata
Администраторы
7799
Vanok
VIP пользователи
4421

Онлайн радио

Каталог торрентов

52
Пиды
146
Сиды

Неуловимые мстители. Трилогия (1966-1971) DVDRip (Реставрация)

Добавил: fayfa Дата: 07 Nov 2019 Просмотров: 32
Скачать Неуловимые мстители. Трилогия (1966-1971) DVDRip (Реставрация)

Производство: СССР, Мосфильм
Жанр: Приключения, боевик, экранизация

Режиссер: Эдмонд Кеосаян
Актеры: Василий Васильев, Виктор Косых, Валентина Курдюкова, Михаил Метёлкин, Борис Сичкин, Армен Джигарханян, Владимир Белокуров, Надежда Федосова, Виктор Колпаков, Иван Жеваго, Александра Денисова, Лев Свердлин, Савелий Крамаров, Глеб Стриженов, Инна Чурикова, Павел Винник, Ефим Копелян, Владимир Трещалов, Геннадий Юхтин, Иван Савкин, Валентина Ананьина, Альбина Матвеева, Юрий Мартынов, Николай Горлов, Александр Милютин, Олег Савосин, Виктор Уральский, Леонид Пархоменко, Александр Пархоменко, Юрий Киреев, Владимир Протасенко, Владимир Ивашов

Описание: «Неуловимые мстители» — советский цветной художественный фильм-истерн, поставленный на Московской ордена Ленина киностудии «Мосфильм» Эдмондом Кеосаяном по мотивам повести Павла Бляхина «Красные дьяволята», о приключениях четырёх подростков в годы Гражданской войны.
Все три части знаменитой трилогии о "Неуловимых мстителях". Блистательная режиссура, актёрская игра, великолепные трюки, искромётный юмор, захватывающие сюжеты сделали эту трилогию знаменитой. Шедевр советского кинематографа, остросюжетная трилогия жанра.

Продолжительность: 04:40:45
[spoiler=Неуловимые мстители (1966)]

Производство: СССР / Мосфильм
Жанр: Приключения, боевик, экранизация

Режиссер: Эдмонд Кеосаян
Актeры: Виктор Косых, Михаил Метёлкин, Василий Васильев, Валентина Курдюкова, Лев Свердлин, Ефим Копелян, Владимир Трещалов, Владимир Белокуров, Борис Сичкин, Инна Чурикова, Надежда Федосова, Глеб Стриженов, Савелий Крамаров

Описаниe: Бывший гимназист Валерка, веселый отчаянный Яшка-цыган, оставшиеся сиротами Данька и его сестренка Ксанка дали клятву внедриться в отряд к атаману Бурнашу и отомстить ему и его банде за смерть отца Даньки. Под видом сына старого друга атамана Данька проникает в отряд Бурнаша. Однако бандиты сумели узнать об этом. Даньку ждет казнь, но друзья на то и друзья, чтобы не бросить своего товарища в беде.



Возраст: 12+ (зрителям, достигшим 12 лет)

Продолжительнoсть: 01:13:50
Качество видео: DVDRip

Видео: XviD, 704x320 (2.2:1), 3710 Kbps, 25.000 fps (0.659 bit/pixel)
Аудио: AC3, 48.0 KHz, 6 ch, 448 Kbps, CBR
Общее
Полное имя : C:NNMНеуловимые мстителиNeulovimye. Trilogy 1966-1971 DVDRip NNMclubNeulovimye mstiteli 1966 DVDRip.avi
Формат : AVI
Формат/Информация : Audio Video Interleave
Профиль формата : OpenDML
Размер файла : 2,15 Гбайт
Продолжительность : 1 ч. 13 м.
Общий поток : 4170 Кбит/сек
Программа кодирования : FairUse Wizard
Библиотека кодирования : The best and REALLY easy backup tool

Видео
Идентификатор : 0
Формат : MPEG-4 Visual
Профиль формата : Advanced Simple@L5
Параметр BVOP формата : 1
Параметр QPel формата : Нет
Параметр GMC формата : Без точки перехода
Параметр матрицы формата : Default (MPEG)
Режим смешивания : Сжатый битовый поток
Идентификатор кодека : XVID
Идентификатор кодека/Подсказка : XviD
Продолжительность : 1 ч. 13 м.
Битрейт : 3710 Кбит/сек
Ширина : 704 пикселя
Высота : 320 пикселей
Соотношение сторон : 2,2:1
Частота кадров : 25,000 кадров/сек
Цветовое пространство : YUV
Субдискретизация насыщенности : 4:2:0
Битовая глубина : 8 бит
Тип развёртки : Прогрессивная
Метод сжатия : С потерями
Бит/(Пиксели*Кадры) : 0.659
Размер потока : 1,91 Гбайт (89%)
Библиотека кодирования : XviD 1.2.0.dev47 (UTC 2006-11-01)

Аудио
Идентификатор : 1
Формат : AC-3
Формат/Информация : Audio Coding 3
Расширение режима : CM (complete main)
Параметр Endianness формата : Big
Идентификатор кодека : 2000
Продолжительность : 1 ч. 13 м.
Вид битрейта : Постоянный
Битрейт : 448 Кбит/сек
Каналы : 6 каналов
Расположение каналов : Front: L C R, Side: L R, LFE
Частота : 48,0 КГц
Частота кадров : 31,250 кадров/сек (1536 spf)
Метод сжатия : С потерями
Размер потока : 236 Мбайт (11%)
Выравнивание : Разделение по промежуткам
Продолжительность промежутка : 40 мс. (1,00 видеокадр)
Время предзагрузки промежутка : 500 мс.
[/spoiler]
Скриншоты:

[spoiler=Новые приключения неуловимых (1968)]

Производств: СССР / Мосфильм
Жанр: Приключения, боевик, экранизация

Режиссер: Эдмонд Кеосаян
Актeры: Виктор Косых, Михаил Метёлкин, Василий Васильев, Валентина Курдюкова, Лев Свердлин, Ефим Копелян, Владимир Трещалов, Владимир Белокуров, Борис Сичкин, Инна Чурикова, Надежда Федосова, Глеб Стриженов, Савелий Крамаров

Описаниe: Крым накануне полного освобождения от белогвардейцев. Возвращаясь из дозора, четверка отважных «неуловимых» подбивает аэроплан. В полевой сумке взятого в плен летчика они обнаруживают секретное донесение, где говорится о существовании оборонительных укреплений вокруг приморского города, который красным еще предстоит взять. Юные герои получают задание добыть карту укреплений и едут в город…



Возраст: 12+ (зрителям, достигшим 12 лет)

Продолжительнoсть: 01:17:38
Качество видео: DVDRip

Видео: XviD, 720x304 (2.35:1), 3042 Kbps, 29.970 fps (0.464 bit/pixel)
Аудио #1: AC3, 48.0 KHz, 6 ch, 448 Kbps, CBR | Русский
Аудио #2: AC3, 48.0 KHz, 6 ch, 448 Kbps, CBR | Чешский
Общее
Полное имя : C:NNMНеуловимые мстителиNeulovimye. Trilogy 1966-1971 DVDRip NNMclubNovye priklucheniya neulovimyh 1968 DVDRip.avi
Формат : AVI
Формат/Информация : Audio Video Interleave
Профиль формата : OpenDML
Размер файла : 2,15 Гбайт
Продолжительность : 1 ч. 17 м.
Общий поток : 3961 Кбит/сек
Программа кодирования : FairUse Wizard
Библиотека кодирования : The best and REALLY easy backup tool

Видео
Идентификатор : 0
Формат : MPEG-4 Visual
Профиль формата : Advanced Simple@L5
Параметр BVOP формата : 1
Параметр QPel формата : Нет
Параметр GMC формата : Без точки перехода
Параметр матрицы формата : Default (MPEG)
Режим смешивания : Сжатый битовый поток
Идентификатор кодека : XVID
Идентификатор кодека/Подсказка : XviD
Продолжительность : 1 ч. 17 м.
Битрейт : 3042 Кбит/сек
Ширина : 720 пикселей
Высота : 304 пикселя
Соотношение сторон : 2,35:1
Частота кадров : 29,970 (30000/1001) кадров/сек
Цветовое пространство : YUV
Субдискретизация насыщенности : 4:2:0
Битовая глубина : 8 бит
Тип развёртки : Прогрессивная
Метод сжатия : С потерями
Бит/(Пиксели*Кадры) : 0.464
Размер потока : 1,65 Гбайт (77%)
Библиотека кодирования : XviD 1.2.0.dev47 (UTC 2006-11-01)

Аудио #1
Идентификатор : 1
Формат : AC-3
Формат/Информация : Audio Coding 3
Расширение режима : CM (complete main)
Параметр Endianness формата : Big
Идентификатор кодека : 2000
Продолжительность : 1 ч. 17 м.
Вид битрейта : Постоянный
Битрейт : 448 Кбит/сек
Каналы : 6 каналов
Расположение каналов : Front: L C R, Side: L R, LFE
Частота : 48,0 КГц
Частота кадров : 31,250 кадров/сек (1536 spf)
Метод сжатия : С потерями
Размер потока : 249 Мбайт (11%)
Выравнивание : Разделение по промежуткам
Продолжительность промежутка : 33 мс. (1,00 видеокадр)
Время предзагрузки промежутка : 500 мс.

Аудио #2
Идентификатор : 2
Формат : AC-3
Формат/Информация : Audio Coding 3
Расширение режима : CM (complete main)
Параметр Endianness формата : Big
Идентификатор кодека : 2000
Продолжительность : 1 ч. 17 м.
Вид битрейта : Постоянный
Битрейт : 448 Кбит/сек
Каналы : 6 каналов
Расположение каналов : Front: L C R, Side: L R, LFE
Частота : 48,0 КГц
Частота кадров : 31,250 кадров/сек (1536 spf)
Метод сжатия : С потерями
Размер потока : 249 Мбайт (11%)
Выравнивание : Разделение по промежуткам
Продолжительность промежутка : 33 мс. (1,00 видеокадр)
Время предзагрузки промежутка : 500 мс.
[/spoiler]
Скриншоты:

[spoiler=Корона Российской империи, или Снова неуловимые (1971)]

Производство: СССР / Мосфильм
Жанр: Приключения, боевик, экранизация

Режиссер: Эдмонд Кеосаян
Актeры: Василий Васильев, Виктор Косых, Валентина Курдюкова, Михаил Метёлкин, Армен Джигарханян, Владимир Белокуров, Аркадий Толбузин, Владислав Стржельчик, Ефим Копелян, Иван Переверзев, Ролан Быков, Людмила Гурченко, Андрей Файт, Ян Френкель, Надежда Федосова, Виктор Колпаков, Иван Жеваго, Александра Денисова, Лев Свердлин, Савелий Крамаров, Глеб Стриженов ...

Описаниe: Кончилась гражданская война. Четвёрка неуловимых мстителей, ставших чекистами, получает новое задание: охранять музейные ценности, в том числе и Большую императорскую корону. А между тем именно ею мечтают короноваться авантюристы, которые ведут в Париже борьбу за престол несуществующей Российской империи…



Возраст: 12+ (зрителям, достигшим 12 лет)

Продолжительнoсть: 01:03:41 + 01:05:36
Качество видео: DVDRip

Part 1
Видео: XviD, 720x304 (2.35:1), 4096 Kbps, 25.000 fps (0.748 bit/pixel)
Аудио: AC3, 48.0 KHz, 6 ch, 448 Kbps, CBR
Part 2
Видео: XviD, 720x304 (2.35:1), 4151 Kbps, 25.000 fps (0.759 bit/pixel)
Аудио: AC3, 48.0 KHz, 6 ch, 448 Kbps, CBR
Общее
Полное имя : C:NNMНеуловимые мстителиNeulovimye. Trilogy 1966-1971 DVDRip NNMclubKorona Rossijskoj imperii part 1 1971 DVDRip.avi
Формат : AVI
Формат/Информация : Audio Video Interleave
Профиль формата : OpenDML
Размер файла : 2,03 Гбайт
Продолжительность : 1 ч. 3 м.
Общий поток : 4556 Кбит/сек
Программа кодирования : FairUse Wizard
Библиотека кодирования : The best and REALLY easy backup tool

Видео
Идентификатор : 0
Формат : MPEG-4 Visual
Профиль формата : Advanced Simple@L5
Параметр BVOP формата : 1
Параметр QPel формата : Нет
Параметр GMC формата : Без точки перехода
Параметр матрицы формата : Default (MPEG)
Режим смешивания : Сжатый битовый поток
Идентификатор кодека : XVID
Идентификатор кодека/Подсказка : XviD
Продолжительность : 1 ч. 3 м.
Битрейт : 4096 Кбит/сек
Ширина : 720 пикселей
Высота : 304 пикселя
Соотношение сторон : 2,35:1
Частота кадров : 25,000 кадров/сек
Цветовое пространство : YUV
Субдискретизация насыщенности : 4:2:0
Битовая глубина : 8 бит
Тип развёртки : Прогрессивная
Метод сжатия : С потерями
Бит/(Пиксели*Кадры) : 0.748
Размер потока : 1,82 Гбайт (90%)
Библиотека кодирования : XviD 1.2.0.dev47 (UTC 2006-11-01)

Аудио
Идентификатор : 1
Формат : AC-3
Формат/Информация : Audio Coding 3
Расширение режима : CM (complete main)
Параметр Endianness формата : Big
Идентификатор кодека : 2000
Продолжительность : 1 ч. 3 м.
Вид битрейта : Постоянный
Битрейт : 448 Кбит/сек
Каналы : 6 каналов
Расположение каналов : Front: L C R, Side: L R, LFE
Частота : 48,0 КГц
Частота кадров : 31,250 кадров/сек (1536 spf)
Метод сжатия : С потерями
Размер потока : 204 Мбайт (10%)
Выравнивание : Разделение по промежуткам
Продолжительность промежутка : 40 мс. (1,00 видеокадр)
Время предзагрузки промежутка : 500 мс.
[/spoiler]
Скриншоты:
Скриншоты:

Все релизы фильма «Неуловимые мстители. Трилогия» на Dvijlo.com

[/c]
Всего комментариев: 0
Добавлять комментарии могут только зарегистрированные пользователи.
[ Регистрация | Вход ]

Опрос

Какой у вас браузер?
Всего ответов: 493