Пароль:
Войти
МУЗЫКА/MUSIC ИГРЫ/GAMES ВИДЕО/VIDEO

Статистика

Всего
Польз.
Гости
Онлайн всего: 21
Гостей: 21
Пользователей: 0
fayfa
Администраторы
10737
Nik
VIP пользователи
8506
katrin
Модераторы
8425
stigmata
Администраторы
8228
vika0509
Модераторы
4665

Онлайн радио

Каталог торрентов

54
Пиды
183
Сиды

Халк / Hulk (2003, 2008) UHD BDRip [H.265/2160p-LQ] [4K, HDR, 10-bit] [Дилогия]

Добавил: vika0509 Дата: 09 Feb 2020 Просмотров: 12
Скачать Халк / Hulk (2003, 2008) UHD BDRip [H.265/2160p-LQ] [4K, HDR,

Производство: США / Good Machine, Marvel Enterprises, Universal Pictures, Valhalla Motion Pictures
Жанр: Фантастика, Боевик, Триллер

Режиссер: Энг Ли, Луи Летерье
Актеры: Эрик Бана, Эдвард Нортон, Дженнифер Коннелли, Сэм Эллиотт, Джош Лукас, Лив Тайлер, Тим Рот, Тим Блейк Нельсон, Ти Баррелл, Уильям Херт

Описание:
Приключения доктора Роберта Брюса Бэннера, человека, проклятого собственным злом.
Халк является главным героем телесериала с и телефильмов, где Брюса Бэннера сыграл Билл Биксби, а Халка Луи Ферриньо; мультсериалов 1982, 1996 и 2013 годов, и двух кинофильмов: в первом, 2003 года, роль Брюса Бэннера исполнил Эрик Бана, а в вышедшем в июне 2008 года ремейке его сыграл Эдвард Нортон. С 2012 года в фильмах Кинематографической вселенной Marvel роль Халка исполняет Марк Руффало.
Халк является одним из самых узнаваемых персонажей Marvel Comics.

Релиз от: NAHOM

Продолжительность: 02:18:14 / 01:52:21
Качество видео: UHD BDRip
Перевод: Дублированный, Многоголосый профессиональный, Двуголосый профессиональный, Авторский
Субтитры: русские (форсированные, полные), английские (полные, для слабослышащих)

Видео: HEVC/H.265, 3840x2072, 3840x1634, ~16,1-19,9 Mbps
Аудио 1: AC3, 6 ch, 384 Kbps (английский)
Аудио 2: DTS, 6 ch, 768 Kbps (русский, дубляж - BD CEE)
Аудио 3: DTS, 6 ch, 768 Kbps (русский, одноголосый - Ю. Живов)
[spoiler=Халк / Hulk (2003)]

Производство: США / Good Machine, Marvel Enterprises, Universal Pictures, Valhalla Motion Pictures
Жанр: Фантастика, Боевик

Режиссер: Энг Ли
Актеры: Эрик Бана, Дженнифер Коннелли, Сэм Эллиотт, Джош Лукас, Ник Нолти, Пол Керси, Кара Буоно, Тодд Тэсэн, Кевин О. Ранкин, Селия Уэстон

Описание:
Доктор Брюс Бэннер (ученый, работающий над изобретением новой бомбы) подвергся воздействию гамма-лучей и превратился в Халка — существо невероятной физической силы, которое в состоянии ярости становится огромным зеленым монстром.
Его преследуют военные под предводительством генерала Росса, ему приходится бежать через всю страну. В конце концов, у него возникает любовная история с генеральской дочкой Бетти…



Возраст: 12+ (зрителям, достигшим 12 лет)
Рейтинг MPAA: PG-13 (детям до 13 лет просмотр нежелателен)

Релиз от: NAHOM

Продолжительность: 02:18:14
Качество видео: UHD BDRip
Перевод: Дублированный, Авторский
Субтитры: русские (форсированные, полные), английские (для слабослышащих)

Видео: HEVC/H.265, 3840x2072, ~16,1 Mbps
Аудио 1: AC3, 6 ch, 384 Kbps (английский)
Аудио 2: DTS, 6 ch, 768 Kbps (русский, дубляж - BD CEE)
Аудио 3: DTS, 6 ch, 768 Kbps (русский, одноголосый - Ю. Живов)
Общее
Уникальный идентификатор : 25047791187175944026846466710739692869 (0x12D80773ACDC86912D1BBA014CFD2D45)
Полное имя : M:ФильмыИностранныеХалк (Hulk)2003 Халк (Hulk).mkv
Формат : Matroska
Версия формата : Version 4
Размер файла : 17,4 Гбайт
Продолжительность : 2 ч. 18 м.
Общий поток : 18,0 Мбит/сек
Название фильма : Халк / Hulk
Кодирование произвёл : NAHOM
Дата выпуска : 2003
Дата кодирования : UTC 2020-02-09 05:01:10
Программа кодирования : mkvmerge v34.0.0 ('Sight and Seen') 64-bit
Библиотека кодирования : libebml v1.3.7 + libmatroska v1.5.0
Обложка : Yes
Attachments : cover.jpg
Released by : Buba5473 for NNM-Club

Видео
Идентификатор : 1
Формат : HEVC
Формат/Информация : High Efficiency Video Coding
Профиль формата : Main 10@L5.1@High
HDR format : SMPTE ST 2086, HDR10 compatible
Идентификатор кодека : V_MPEGH/ISO/HEVC
Продолжительность : 2 ч. 18 м.
Битрейт : 16,1 Мбит/сек
Ширина : 3840 пикселей
Высота : 2072 пикселя
Соотношение сторон : 1,85:1
Режим частоты кадров : Постоянный
Частота кадров : 23,976 (24000/1001) кадра/сек
Цветовое пространство : YUV
Субдискретизация насыщенности : 4:2:0
Битовая глубина : 10 бит
Бит/(Пиксели*Кадры) : 0.084
Размер потока : 15,5 Гбайт (89%)
Язык : English
Default : Да
Forced : Нет
Color range : Limited
Основные цвета : BT.2020
Характеристики трансфера : PQ
Коэффициенты матрицы : BT.2020 non-constant
Mastering display color primaries : Display P3
Mastering display luminance : min: 0.0001 cd/m2, max: 1000 cd/m2
Maximum Content Light Level : 1000 cd/m2
Maximum Frame-Average Light Level : 270 cd/m2

Аудио #1
Идентификатор : 2
Формат : AC-3
Формат/Информация : Audio Coding 3
Коммерческое название : Dolby Digital
Идентификатор кодека : A_AC3
Продолжительность : 2 ч. 18 м.
Вид битрейта : Постоянный
Битрейт : 384 Кбит/сек
Каналы : 6 каналов
Channel layout : L R C LFE Ls Rs
Частота : 48,0 КГц
Частота кадров : 31,250 кадров/сек (1536 SPF)
Битовая глубина : 16 бит
Метод сжатия : С потерями
Размер потока : 379 Мбайт (2%)
Язык : English
Service kind : Complete Main
Default : Нет
Forced : Нет

Аудио #2
Идентификатор : 3
Формат : DTS
Формат/Информация : Digital Theater Systems
Идентификатор кодека : A_DTS
Продолжительность : 2 ч. 18 м.
Вид битрейта : Постоянный
Битрейт : 768 Кбит/сек
Каналы : 6 каналов
Channel layout : C L R Ls Rs LFE
Частота : 48,0 КГц
Частота кадров : 93,750 кадра/сек (512 SPF)
Битовая глубина : 24 бит
Метод сжатия : С потерями
Задержка видео : 372 мс.
Размер потока : 759 Мбайт (4%)
Заголовок : Перевод: профессиональный (полное дублирование) BD CEE
Язык : Russian
Default : Да
Forced : Нет

Аудио #3
Идентификатор : 4
Формат : DTS
Формат/Информация : Digital Theater Systems
Идентификатор кодека : A_DTS
Продолжительность : 2 ч. 18 м.
Вид битрейта : Постоянный
Битрейт : 768 Кбит/сек
Каналы : 6 каналов
Channel layout : C L R Ls Rs LFE
Частота : 48,0 КГц
Частота кадров : 93,750 кадра/сек (512 SPF)
Битовая глубина : 24 бит
Метод сжатия : С потерями
Задержка видео : 372 мс.
Размер потока : 759 Мбайт (4%)
Заголовок : Перевод: Авторский (одноголосный, закадровый) Ю. Живов
Язык : Russian
Default : Нет
Forced : Нет

Текст #1
Идентификатор : 5
Формат : UTF-8
Идентификатор кодека : S_TEXT/UTF8
Идентификатор кодека/Информация : UTF-8 Plain Text
Продолжительность : 1 ч. 58 м.
Битрейт : 0 бит/сек
Count of elements : 8
Размер потока : 310 байт (0%)
Заголовок : Форсированные
Язык : Russian
Default : Да
Forced : Нет

Текст #2
Идентификатор : 6
Формат : UTF-8
Идентификатор кодека : S_TEXT/UTF8
Идентификатор кодека/Информация : UTF-8 Plain Text
Продолжительность : 2 ч. 10 м.
Битрейт : 58 бит/сек
Count of elements : 1016
Размер потока : 56,1 Кбайт (0%)
Заголовок : Полные, R5
Язык : Russian
Default : Нет
Forced : Нет

Текст #3
Идентификатор : 7
Формат : UTF-8
Идентификатор кодека : S_TEXT/UTF8
Идентификатор кодека/Информация : UTF-8 Plain Text
Продолжительность : 2 ч. 12 м.
Битрейт : 40 бит/сек
Count of elements : 1253
Размер потока : 39,6 Кбайт (0%)
Заголовок : SDH
Язык : English
Default : Нет
Forced : Нет

Меню
00:00:00.000 : en:00:00:00.000
00:04:21.136 : en:00:04:21.136
00:11:21.681 : en:00:11:21.681
00:13:55.293 : en:00:13:55.293
00:17:24.377 : en:00:17:24.377
00:20:12.962 : en:00:20:12.962
00:22:50.661 : en:00:22:50.661
00:29:17.005 : en:00:29:17.005
00:32:37.956 : en:00:32:37.956
00:37:03.138 : en:00:37:03.138
00:39:24.946 : en:00:39:24.946
00:45:12.960 : en:00:45:12.960
00:49:01.147 : en:00:49:01.147
00:54:11.290 : en:00:54:11.290
00:57:40.123 : en:00:57:40.123
00:59:53.131 : en:00:59:53.131
01:11:14.937 : en:01:11:14.937
01:16:10.733 : en:01:16:10.733
01:19:14.416 : en:01:19:14.416
01:24:54.715 : en:01:24:54.715
01:27:20.944 : en:01:27:20.944
01:32:04.519 : en:01:32:04.519
01:36:14.686 : en:01:36:14.686
01:41:42.346 : en:01:41:42.346
01:47:10.758 : en:01:47:10.758
01:49:49.082 : en:01:49:49.082
01:55:37.055 : en:01:55:37.055
02:02:55.910 : en:02:02:55.910
02:07:34.313 : en:02:07:34.313
02:08:31.370 : en:02:08:31.370
02:11:07.359 : en:02:11:07.359
02:12:41.620 : en:02:12:41.620

XMP
Xmp.video.FileName : F:Халк (Hulk)2003 Халк (Hulk).mkv
Xmp.video.FileSize : 1393.98
Xmp.video.MimeType : video/matroska
Xmp.video.EBMLVersion : 1
Xmp.video.EBMLReadVersion : 1
Xmp.video.DocType : matroska
Xmp.video.DocTypeVersion : 4
Xmp.video.DocTypeReadVersion : 2
Xmp.video.TimecodeScale : 0.001
Xmp.video.MuxingApp : libebml v1.3.7 + libmatroska v1.5.0
Xmp.video.WritingApp : mkvmerge v34.0.0 ('Sight and Seen') 64-bit
Xmp.video.Duration : 8293663
Xmp.video.DateUTC : 602917270
Xmp.video.Title : Халк / Hulk
Xmp.video.TotalStream : 14
Xmp.video.TrackLacing : No
Xmp.video.Codec : V_MPEGH/ISO/HEVC
Xmp.video.FrameRate : 23.976
Xmp.video.Width : 3840
Xmp.video.Height : 2072
Xmp.audio.DefaultOn : No
Xmp.audio.Compressor : A_DTS
Xmp.audio.DefaultDuration : 10666
Xmp.audio.SampleRate : 48000
Xmp.audio.TrackLang : rus
Xmp.video.TrackName : SDH
Xmp.audio.BitsPerSample : 24
Xmp.video.SubTTrackLacing : No
Xmp.video.SubTCodec : S_TEXT/UTF8
Xmp.video.SubTLang : rus
Xmp.video.SubTDefaultOn : No
Xmp.video.AttachFileName : cover.jpg
Xmp.video.AttachFileMIME : image/jpeg
Xmp.video.AttachFileUID : 7199492054707367050
Xmp.video.AttachFileDesc : Cover
Xmp.video.AspectRatio : 1.8
[/spoiler]
Диск на Blu-ray.com
Просмотр 4K HDR-контента на ПК

Скриншоты:


Все релизы "Халк" в Клубе

[spoiler=Невероятный Халк / The Incredible Hulk (2008)]

Производство: США / Good Machine, Marvel Enterprises, Universal Pictures, Marvel Studios Inc., Valhalla Motion Pictures
Жанр: Фантастика, Боевик, Триллер

Режиссер: Луи Летерье
Актеры: Эдвард Нортон, Лив Тайлер, Тим Рот, Тим Блейк Нельсон, Ти Баррелл, Уильям Херт, Кристина Сабот, Питер Менса, Лу Ферриньо, Пол Соулз

Описание:
История доктора Брюса Бэннера, который ищет лекарство от своего необычного «заболевания», превращающего его во время эмоционального стресса в гигантского зеленого монстра Халка. Находясь в бегах от армии, стремящейся его захватить, Брюс почти находит лекарство, но все старания идут прахом, когда у Халка вдруг появляется новый, невероятно сильный противник.



Возраст: 12+ (зрителям, достигшим 12 лет)
Рейтинг MPAA: PG-13 (детям до 13 лет просмотр нежелателен)

Релиз от: NAHOM

Продолжительность: 01:52:21
Качество видео: UHD BDRip
Перевод: Дублированный, Многоголосый профессиональный, Двуголосый профессиональный, Авторский x2
Субтитры: русские (форсированные), английские (полные, для слабослышащих)

Видео: HEVC/H.265, 3840x1634, ~19,9 Mbps
Аудио 1: AC3, 6 ch, 384 Kbps (английский)
Аудио 2: AC3, 6 ch, 448 Kbps (русский, дубляж - BD CEE)
Аудио 3: DTS, 6 ch, 1510 Kbps (русский, многоголосый - Кравец)
Аудио 4: AC3, 6 ch, 384 Kbps (русский, двуголосый - Супербит)
Аудио 5: DTS, 6 ch, 1509 Kbps (русский, одноголосый - А. Гаврилов)
Аудио 6: DTS, 6 ch, 1509 Kbps (русский, одноголосый - В. Королев)
Общее
Уникальный идентификатор : 40817641976897440285868808049489843723 (0x1EB5311FFB6C333D3C0DC4333E2B960B)
Полное имя : M:ФильмыИностранныеХалк (Hulk)2008 Невероятный Халк (The Incredible Hulk).mkv
Формат : Matroska
Версия формата : Version 4
Размер файла : 20,1 Гбайт
Продолжительность : 1 ч. 52 м.
Общий поток : 25,7 Мбит/сек
Название фильма : Невероятный Халк / The Incredible Hulk
Кодирование произвёл : NAHOM
Дата выпуска : 2008
Дата кодирования : UTC 2020-02-09 06:26:02
Программа кодирования : mkvmerge v34.0.0 ('Sight and Seen') 64-bit
Библиотека кодирования : libebml v1.3.7 + libmatroska v1.5.0
Обложка : Yes
Attachments : cover.jpg
Released by : Buba5473 for NNM-Club

Видео
Идентификатор : 1
Формат : HEVC
Формат/Информация : High Efficiency Video Coding
Профиль формата : Main 10@L5.1@High
HDR format : SMPTE ST 2086, HDR10 compatible
Идентификатор кодека : V_MPEGH/ISO/HEVC
Продолжительность : 1 ч. 52 м.
Битрейт : 19,9 Мбит/сек
Ширина : 3840 пикселей
Высота : 1634 пикселя
Соотношение сторон : 2,35:1
Режим частоты кадров : Постоянный
Частота кадров : 23,976 (24000/1001) кадра/сек
Цветовое пространство : YUV
Субдискретизация насыщенности : 4:2:0 (Type 2)
Битовая глубина : 10 бит
Бит/(Пиксели*Кадры) : 0.133
Размер потока : 15,6 Гбайт (78%)
Заголовок : The.Incredible.Hulk.2008.4K.HDR.2160p.BDRip Ita Eng x265-NAHOM
Библиотека кодирования : x265 2.7+20-3440a56acc78:[Windows][GCC 6.3.0][64 bit] 10bit
Настройки программы : cpuid=1173503 / frame-threads=4 / numa-pools=16 / wpp / no-pmode / no-pme / no-psnr / no-ssim / log-level=2 / input-csp=1 / input-res=3840x1634 / interlace=0 / total-frames=161407 / level-idc=51 / high-tier=1 / uhd-bd=0 / ref=4 / no-allow-non-conformance / repeat-headers / annexb / aud / hrd / info / hash=0 / no-temporal-layers / no-open-gop / min-keyint=24 / keyint=240 / gop-lookahead=0 / bframes=4 / b-adapt=2 / b-pyramid / bframe-bias=0 / rc-lookahead=25 / lookahead-slices=4 / scenecut=40 / radl=0 / no-intra-refresh / ctu=64 / min-cu-size=8 / rect / no-amp / max-tu-size=32 / tu-inter-depth=1 / tu-intra-depth=1 / limit-tu=0 / rdoq-level=2 / dynamic-rd=0.00 / no-ssim-rd / signhide / no-tskip / nr-intra=0 / nr-inter=0 / no-constrained-intra / no-strong-intra-smoothing / max-merge=3 / limit-refs=3 / limit-modes / me=3 / subme=3 / merange=57 / temporal-mvp / weightp / no-weightb / no-analyze-src-pics / deblock=-3:-3 / no-sao / no-sao-non-deblock / rd=4 / no-early-skip / rskip / no-fast-intra / no-tskip-fast / no-cu-lossless / no-b-intra / no-splitrd-skip / rdpenalty=0 / psy-rd=2.00 / psy-rdoq=1.00 / no-rd-refine / no-lossless / cbqpoffs=0 / crqpoffs=0 / rc=crf / crf=17.0 / qcomp=0.60 / qpstep=4 / stats-write=0 / stats-read=0 / vbv-maxrate=160000 / vbv-bufsize=160000 / vbv-init=0.9 / crf-max=0.0 / crf-min=0.0 / ipratio=1.40 / pbratio=1.30 / aq-mode=1 / aq-strength=1.00 / cutree / zone-count=0 / no-strict-cbr / qg-size=32 / no-rc-grain / qpmax=69 / qpmin=0 / no-const-vbv / sar=1 / overscan=0 / videoformat=5 / range=0 / colorprim=9 / transfer=16 / colormatrix=9 / chromaloc=1 / chromaloc-top=2 / chromaloc-bottom=2 / display-window=0 / master-display=G(13250,34500)B(7500,3000)R(34000,16000)WP(15635,16450)L(10000000,50) / max-cll=915,258 / min-luma=0 / max-luma=1023 / log2-max-poc-lsb=8 / vui-timing-info / vui-hrd-info / slices=1 / opt-qp-pps / opt-ref-list-length-pps / no-multi-pass-opt-rps / scenecut-bias=0.05 / no-opt-cu-delta-qp / no-aq-motion / hdr / hdr-opt / no-dhdr10-opt / no-idr-recovery-sei / analysis-reuse-level=5 / scale-factor=0 / refine-intra=0 / refine-inter=0 / refine-mv=0 / no-limit-sao / ctu-info=0 / no-lowpass-dct / refine-mv-type=0 / copy-pic=1 / max-ausize-factor=1.0 / no-dynamic-refine
Default : Да
Forced : Нет
Color range : Limited
Основные цвета : BT.2020
Характеристики трансфера : PQ
Коэффициенты матрицы : BT.2020 non-constant
Mastering display color primaries : Display P3
Mastering display luminance : min: 0.0050 cd/m2, max: 1000 cd/m2
Maximum Content Light Level : 915 cd/m2
Maximum Frame-Average Light Level : 258 cd/m2

Аудио #1
Идентификатор : 4
Формат : AC-3
Формат/Информация : Audio Coding 3
Коммерческое название : Dolby Digital
Идентификатор кодека : A_AC3
Продолжительность : 1 ч. 52 м.
Вид битрейта : Постоянный
Битрейт : 384 Кбит/сек
Каналы : 6 каналов
Channel layout : L R C LFE Ls Rs
Частота : 48,0 КГц
Частота кадров : 31,250 кадров/сек (1536 SPF)
Битовая глубина : 16 бит
Метод сжатия : С потерями
Размер потока : 308 Мбайт (1%)
Язык : English
Service kind : Complete Main
Default : Нет
Forced : Нет

Аудио #2
Идентификатор : 5
Формат : AC-3
Формат/Информация : Audio Coding 3
Коммерческое название : Dolby Digital
Идентификатор кодека : A_AC3
Продолжительность : 1 ч. 52 м.
Вид битрейта : Постоянный
Битрейт : 448 Кбит/сек
Каналы : 6 каналов
Channel layout : L R C LFE Ls Rs
Частота : 48,0 КГц
Частота кадров : 31,250 кадров/сек (1536 SPF)
Битовая глубина : 16 бит
Метод сжатия : С потерями
Задержка видео : 16 мс.
Размер потока : 360 Мбайт (2%)
Заголовок : Перевод: Дублированный (BD CEE)
Язык : Russian
Service kind : Complete Main
Default : Да
Forced : Нет

Аудио #3
Идентификатор : 7
Формат : DTS
Формат/Информация : Digital Theater Systems
Идентификатор кодека : A_DTS
Продолжительность : 1 ч. 52 м.
Вид битрейта : Постоянный
Битрейт : 1510 Кбит/сек
Каналы : 6 каналов
Channel layout : C L R Ls Rs LFE
Частота : 48,0 КГц
Частота кадров : 93,750 кадра/сек (512 SPF)
Битовая глубина : 24 бит
Метод сжатия : С потерями
Размер потока : 1,18 Гбайт (6%)
Заголовок : Перевод: Многоголосый (Кравец)
Язык : Russian
Default : Нет
Forced : Нет

Аудио #4
Идентификатор : 8
Формат : AC-3
Формат/Информация : Audio Coding 3
Коммерческое название : Dolby Digital
Идентификатор кодека : A_AC3
Продолжительность : 1 ч. 52 м.
Вид битрейта : Постоянный
Битрейт : 384 Кбит/сек
Каналы : 6 каналов
Channel layout : L R C LFE Ls Rs
Частота : 48,0 КГц
Частота кадров : 31,250 кадров/сек (1536 SPF)
Битовая глубина : 16 бит
Метод сжатия : С потерями
Размер потока : 309 Мбайт (1%)
Заголовок : Перевод: Двухголосый (Супербит)
Язык : Russian
Service kind : Complete Main
Default : Нет
Forced : Нет

Аудио #5
Идентификатор : 9
Формат : DTS
Формат/Информация : Digital Theater Systems
Идентификатор кодека : A_DTS
Продолжительность : 1 ч. 52 м.
Вид битрейта : Постоянный
Битрейт : 1509 Кбит/сек
Каналы : 6 каналов
Channel layout : C L R Ls Rs LFE
Частота : 48,0 КГц
Частота кадров : 93,750 кадра/сек (512 SPF)
Битовая глубина : 24 бит
Метод сжатия : С потерями
Размер потока : 1,18 Гбайт (6%)
Заголовок : Перевод: Авторский (А.Гаврилов)
Язык : Russian
Default : Нет
Forced : Нет

Аудио #6
Идентификатор : 10
Формат : DTS
Формат/Информация : Digital Theater Systems
Идентификатор кодека : A_DTS
Продолжительность : 1 ч. 52 м.
Вид битрейта : Постоянный
Битрейт : 1509 Кбит/сек
Каналы : 6 каналов
Channel layout : C L R Ls Rs LFE
Частота : 48,0 КГц
Частота кадров : 93,750 кадра/сек (512 SPF)
Битовая глубина : 24 бит
Метод сжатия : С потерями
Размер потока : 1,18 Гбайт (6%)
Заголовок : Перевод: Авторский (В.Королев)
Язык : Russian
Default : Нет
Forced : Нет

Текст #1
Идентификатор : 2
Формат : UTF-8
Идентификатор кодека : S_TEXT/UTF8
Идентификатор кодека/Информация : UTF-8 Plain Text
Продолжительность : 1 ч. 41 м.
Битрейт : 29 бит/сек
Count of elements : 724
Размер потока : 21,9 Кбайт (0%)
Заголовок : Stripped
Язык : English
Default : Нет
Forced : Нет

Текст #2
Идентификатор : 3
Формат : UTF-8
Идентификатор кодека : S_TEXT/UTF8
Идентификатор кодека/Информация : UTF-8 Plain Text
Продолжительность : 1 ч. 44 м.
Битрейт : 32 бит/сек
Count of elements : 881
Размер потока : 25,0 Кбайт (0%)
Заголовок : SDH
Язык : English
Default : Нет
Forced : Нет

Текст #3
Идентификатор : 6
Формат : UTF-8
Идентификатор кодека : S_TEXT/UTF8
Идентификатор кодека/Информация : UTF-8 Plain Text
Продолжительность : 1 ч. 50 м.
Битрейт : 7 бит/сек
Count of elements : 125
Размер потока : 5,87 Кбайт (0%)
Заголовок : Forced
Язык : Russian
Default : Да
Forced : Нет

XMP
Xmp.video.FileName : F:Халк (Hulk)2008 Невероятный Халк (The Incredible Hulk).mkv
Xmp.video.FileSize : 136.472
Xmp.video.MimeType : video/matroska
Xmp.video.EBMLVersion : 1
Xmp.video.EBMLReadVersion : 1
Xmp.video.DocType : matroska
Xmp.video.DocTypeVersion : 4
Xmp.video.DocTypeReadVersion : 2
Xmp.video.TimecodeScale : 0.001
Xmp.video.MuxingApp : libebml v1.3.7 + libmatroska v1.5.0
Xmp.video.WritingApp : mkvmerge v34.0.0 ('Sight and Seen') 64-bit
Xmp.video.Duration : 6741088
Xmp.video.DateUTC : 602922362
Xmp.video.Title : Невероятный Халк / The Incredible Hulk
Xmp.video.TotalStream : 51
Xmp.video.TrackLacing : No
Xmp.video.Codec : V_MPEGH/ISO/HEVC
Xmp.video.FrameRate : 23.976
Xmp.video.TrackLang : und
Xmp.video.TrackName : Перевод: Авторский (В.Королев)
Xmp.video.Width : 3840
Xmp.video.Height : 1634
Xmp.video.SubTDefaultOn : No
Xmp.video.SubTTrackLacing : No
Xmp.video.SubTCodec : S_TEXT/UTF8
Xmp.audio.DefaultOn : No
Xmp.audio.Compressor : A_DTS
Xmp.audio.DefaultDuration : 10666
Xmp.audio.SampleRate : 48000
Xmp.audio.TrackLang : rus
Xmp.video.SubTLang : rus
Xmp.audio.BitsPerSample : 24
Xmp.video.AttachFileName : cover.jpg
Xmp.video.AttachFileMIME : image/jpeg
Xmp.video.AttachFileUID : -2199486926869633164
Xmp.video.AspectRatio : 2.35:1
[/spoiler]
Диск на Blu-ray.com
Просмотр 4K HDR-контента на ПК

Скриншоты:


Производство: США / Good Machine, Marvel Enterprises, Universal Pictures, Valhalla Motion Pictures
Жанр: Фантастика, Боевик, Триллер

Режиссер: Энг Ли, Луи Летерье
Актеры: Эрик Бана, Эдвард Нортон, Дженнифер Коннелли, Сэм Эллиотт, Джош Лукас, Лив Тайлер, Тим Рот, Тим Блейк Нельсон, Ти Баррелл, Уильям Херт

Описание:
Приключения доктора Роберта Брюса Бэннера, человека, проклятого собственным злом.
Халк является главным героем телесериала с и телефильмов, где Брюса Бэннера сыграл Билл Биксби, а Халка Луи Ферриньо; мультсериалов 1982, 1996 и 2013 годов, и двух кинофильмов: в первом, 2003 года, роль Брюса Бэннера исполнил Эрик Бана, а в вышедшем в июне 2008 года ремейке его сыграл Эдвард Нортон. С 2012 года в фильмах Кинематографической вселенной Marvel роль Халка исполняет Марк Руффало.
Халк является одним из самых узнаваемых персонажей Marvel Comics.

Продолжительность: 02:18:14 / 01:52:21
Перевод: Дублированный, Многоголосый профессиональный, Двуголосый профессиональный, Авторский
Субтитры: русские, английские


Скриншоты:

Всего комментариев: 0
Добавлять комментарии могут только зарегистрированные пользователи.
[ Регистрация | Вход ]

Опрос

Какой у вас браузер?
Всего ответов: 523