Пароль:
Войти
МУЗЫКА/MUSIC ИГРЫ/GAMES ВИДЕО/VIDEO

Статистика

Всего
Польз.
Гости
Онлайн всего: 17
Гостей: 17
Пользователей: 0
fayfa
Администраторы
10241
katrin
Модераторы
8355
Nik
VIP пользователи
8143
stigmata
Администраторы
7778
Vanok
VIP пользователи
4407

Онлайн радио

Каталог торрентов

192
Пиды
7
Сиды

Голодные игры / The Hunger Games (2012-2015) BDRip [H.264/720p] [Квадрология]

Добавил: vika0509 Дата: 09 Nov 2019 Просмотров: 4
Скачать Голодные игры / The Hunger Games (2012-2015) BDRip [H.264/720p

Производство: США / Lionsgate, Color Force
Жанр: фантастика, боевик, триллер, приключения

Режиссер: Гэри Росс, Френсис Лоуренс
Актеры: Дженнифер Лоуренс, Джош Хатчерсон, Лиам Хемсворт, Элизабет Бэнкс, Вуди Харрельсон, Стэнли Туччи, Ленни Кравиц, Уэс Бентли, Дональд Сазерленд, Тоби Джонс

Описание:
Будущее. Деспотичное государство ежегодно устраивает показательные игры на выживание, за которыми в прямом эфире следит весь мир. Жребий участвовать в Играх выпадает юной Китнисс и тайно влюбленному в нее Питу. Они знакомы с детства, но теперь должны стать врагами. Ведь по нерушимому закону Голодных игр победить может только один из 24 участников. Судьям не важно кто выиграет, главное — зрелище. И на этот раз зрелище будет незабываемым.

Продолжительность: 02:22:33 / 02:26:13 / 02:03:19 / 02:16:57
Качество видео: BDRip
Перевод: Дублированный
Субтитры: русские, английские

Видео: AVC/H.264, 1280x534 / 1280x720, ~ 4480 - 6320 kbps
Аудио 1: AC3, 6 ch, 384/640 kbps, Русский - дублированный
Аудио 2: AC3, 6 ch, 640 kbps, Английский
[spoiler=Голодные игры (2012)]

Производство: США / Lionsgate, Color Force
Жанр: фантастика, боевик, триллер, приключения

Режиссер: Гэри Росс
Актеры: Дженнифер Лоуренс, Джош Хатчерсон, Лиам Хемсворт, Элизабет Бэнкс, Вуди Харрельсон, Стэнли Туччи, Ленни Кравиц, Уэс Бентли, Дональд Сазерленд, Тоби Джонс

Описание:
Будущее. Деспотичное государство ежегодно устраивает показательные игры на выживание, за которыми в прямом эфире следит весь мир. Жребий участвовать в Играх выпадает юной Китнисс и тайно влюбленному в нее Питу. Они знакомы с детства, но теперь должны стать врагами. Ведь по нерушимому закону Голодных игр победить может только один из 24 участников. Судьям не важно кто выиграет, главное — зрелище. И на этот раз зрелище будет незабываемым.



Возраст: 12+ (зрителям, достигшим 12 лет)
Рейтинг MPAA: PG-13 (детям до 13 лет просмотр нежелателен)

Продолжительность: 02:22:33
Качество видео: BDRip
Перевод: Дублированный
Субтитры: русские, английские

Видео: AVC/H.264, 1280x534, ~ 6320 kbps
Аудио 1: AC3, 6 ch, 640 kbps, Русский (DUB)
Аудио 2: AC3, 6 ch, 640 kbps, Английский
Общее
Уникальный идентификатор : 170434873227394861821904666716182601665 (0x80389006019A193F8471CD5F2802DFC1)
Полное имя : D:FILMSGolodnyie_Igry1.Golodnyie.Igry.2012.BDRip.720p.mkv
Формат : Matroska
Версия формата : Version 4
Размер файла : 7,57 Гбайт
Продолжительность : 2 ч. 22 м.
Общий поток : 7602 Кбит/сек
Название фильма : The Hunger Games (2012)
Дата кодирования : UTC 2019-11-06 06:58:13
Программа кодирования : mkvmerge v8.2.0 ('World of Adventure') 64bit
Библиотека кодирования : libebml v1.3.1 + libmatroska v1.4.2

Видео
Идентификатор : 1
Формат : AVC
Формат/Информация : Advanced Video Codec
Профиль формата : High@L4.1
Настройки формата : CABAC / 9 Ref Frames
Параметр CABAC формата : Да
Параметр RefFrames формата : 9 кадров
Идентификатор кодека : V_MPEG4/ISO/AVC
Продолжительность : 2 ч. 22 м.
Битрейт : 6320 Кбит/сек
Ширина : 1280 пикселей
Высота : 534 пикселя
Соотношение сторон : 2,40:1
Режим частоты кадров : Постоянный
Частота кадров : 23,976 кадра/сек
Цветовое пространство : YUV
Субдискретизация насыщенности : 4:2:0
Битовая глубина : 8 бит
Тип развёртки : Прогрессивная
Бит/(Пиксели*Кадры) : 0.386
Размер потока : 6,29 Гбайт (83%)
Заголовок : potroks
Библиотека кодирования : x264 core 146 r2538 121396c
Настройки программы : cabac=1 / ref=9 / deblock=1:-3:-3 / analyse=0x3:0x113 / me=umh / subme=11 / psy=1 / psy_rd=0.96:0.00 / mixed_ref=1 / me_range=48 / chroma_me=1 / trellis=2 / 8x8dct=1 / cqm=0 / deadzone=21,11 / fast_pskip=0 / chroma_qp_offset=-2 / threads=9 / lookahead_threads=2 / sliced_threads=0 / nr=0 / decimate=0 / interlaced=0 / bluray_compat=0 / constrained_intra=0 / bframes=10 / b_pyramid=2 / b_adapt=2 / b_bias=0 / direct=3 / weightb=1 / open_gop=0 / weightp=2 / keyint=250 / keyint_min=23 / scenecut=40 / intra_refresh=0 / rc_lookahead=60 / rc=2pass / mbtree=0 / bitrate=6320 / ratetol=1.0 / qcomp=0.70 / qpmin=0 / qpmax=69 / qpstep=4 / cplxblur=20.0 / qblur=0.5 / vbv_maxrate=14000 / vbv_bufsize=14000 / nal_hrd=none / filler=0 / ip_ratio=1.40 / pb_ratio=1.30 / aq=1:0.80
Язык : English
Default : Да
Forced : Нет

Аудио #1
Идентификатор : 2
Формат : AC-3
Формат/Информация : Audio Coding 3
Коммерческое название : Dolby Digital
Идентификатор кодека : A_AC3
Продолжительность : 2 ч. 22 м.
Вид битрейта : Постоянный
Битрейт : 640 Кбит/сек
Каналы : 6 каналов
ChannelLayout : L R C LFE Ls Rs
Частота : 48,0 КГц
Частота кадров : 31,250 кадров/сек (1536 SPF)
Метод сжатия : С потерями
Размер потока : 653 Мбайт (8%)
Заголовок : Dub | DD 5.1 @ 640 kbps - Blu-Rauy RUS
Язык : Russian
ServiceKind/String : Complete Main
Default : Да
Forced : Нет

Аудио #2
Идентификатор : 3
Формат : AC-3
Формат/Информация : Audio Coding 3
Коммерческое название : Dolby Digital
Идентификатор кодека : A_AC3
Продолжительность : 2 ч. 22 м.
Вид битрейта : Постоянный
Битрейт : 640 Кбит/сек
Каналы : 6 каналов
ChannelLayout : L R C LFE Ls Rs
Частота : 48,0 КГц
Частота кадров : 31,250 кадров/сек (1536 SPF)
Метод сжатия : С потерями
Размер потока : 653 Мбайт (8%)
Заголовок : Original | DD 5.1 @ 640 kbps
Язык : English
ServiceKind/String : Complete Main
Default : Нет
Forced : Нет

Текст #1
Идентификатор : 4
Формат : UTF-8
Идентификатор кодека : S_TEXT/UTF8
Идентификатор кодека/Информация : UTF-8 Plain Text
Продолжительность : 2 ч. 11 м.
Битрейт : 54 бит/сек
ElementCount : 1081
Размер потока : 52,9 Кбайт (0%)
Заголовок : Blu-Ray
Язык : Russian
Default : Нет
Forced : Нет

Текст #2
Идентификатор : 5
Формат : UTF-8
Идентификатор кодека : S_TEXT/UTF8
Идентификатор кодека/Информация : UTF-8 Plain Text
Продолжительность : 2 ч. 11 м.
Битрейт : 35 бит/сек
ElementCount : 1098
Размер потока : 34,7 Кбайт (0%)
Заголовок : Full
Язык : English
Default : Нет
Forced : Нет

Текст #3
Идентификатор : 6
Формат : UTF-8
Идентификатор кодека : S_TEXT/UTF8
Идентификатор кодека/Информация : UTF-8 Plain Text
Продолжительность : 2 ч. 11 м.
Битрейт : 39 бит/сек
ElementCount : 1250
Размер потока : 38,1 Кбайт (0%)
Заголовок : SDH
Язык : English
Default : Нет
Forced : Нет

Текст #4
Идентификатор : 7
Формат : UTF-8
Идентификатор кодека : S_TEXT/UTF8
Идентификатор кодека/Информация : UTF-8 Plain Text
Продолжительность : 2 ч. 11 м.
Битрейт : 53 бит/сек
ElementCount : 1251
Размер потока : 51,8 Кбайт (0%)
Заголовок : SDH-Colored
Язык : English
Default : Нет
Forced : Нет

Меню
00:00:00.000 : en:(01)00:00:00:000
00:10:05.813 : en:(02)00:10:05:813
00:18:00.078 : en:(03)00:18:00:078
00:25:05.879 : en:(04)00:25:05:879
00:31:12.662 : en:(05)00:31:12:662
00:43:28.564 : en:(06)00:43:28:564
00:50:38.702 : en:(07)00:50:38:702
00:56:58.915 : en:(08)00:56:58:915
01:06:57.763 : en:(09)01:06:57:763
01:15:58.970 : en:(10)01:15:58:970
01:22:06.046 : en:(11)01:22:06:046
01:29:00.417 : en:(12)01:29:00:417
01:38:00.749 : en:(13)01:38:00:749
01:43:19.192 : en:(14)01:43:19:192
01:57:56.611 : en:(15)01:57:56:611
02:09:26.550 : en:(16)02:09:26:550
[/spoiler]

Скриншоты:


[spoiler=Голодные игры: И вспыхнет пламя (2013) (IMAX)]

Производство: США / Color Force, Lionsgate
Жанр: фантастика, боевик, триллер, приключения

Режиссер: Френсис Лоуренс
Актеры: Дженнифер Лоуренс, Джош Хатчерсон, Сэм Клафлин, Джена Мэлоун, Вуди Харрельсон, Элизабет Бэнкс, Лиам Хемсворт, Дональд Сазерленд, Филип Сеймур Хоффман, Стэнли Туччи

Описание:
Сумев выжить на безжалостных Голодных играх, Китнисс Эвердин и Пит Мелларк возвращаются домой. Но теперь они в еще большей опасности, так как своим отказом играть по правилам на Арене бросили вызов Капитолию. По традиции следующие, юбилейные, Голодные игры должны стать особенными, и в этот раз в них участвуют только победители прошлых лет. Китнисс и Пит вынуждены вновь выйти на Арену, где будут соперничать с сильнейшими. Правила игры меняются. Арена еще опасней, масштаб еще больше, ставки еще выше!



Возраст: 12+ (зрителям, достигшим 12 лет)
Рейтинг MPAA: PG-13 (детям до 13 лет просмотр нежелателен)

Продолжительность: 02:26:13
Качество видео: BDRip
Перевод: Дублированный
Субтитры: русские, английские

Видео: AVC/H.264, 1280x720, ~ 4480 kbps
Аудио 1: AC3, 6 ch, 640 kbps, Русский (DUB)
Аудио 2: AC3, 6 ch, 640 kbps, Английский
Общее
Уникальный идентификатор : 224246174613479195047597047907279559759 (0xA8B43E04C45AECAF92D0EDE82185DC4F)
Полное имя : D:FILMSGolodnyie_Igry2.Golodnyie.Igry.I.Vspyhnet.Plamya.2013.IMAX.BDRip.720р.mkv
Формат : Matroska
Версия формата : Version 4
Размер файла : 5,89 Гбайт
Продолжительность : 2 ч. 26 м.
Общий поток : 5761 Кбит/сек
Название фильма : The Hunger Games: Catching Fire (2013)
Дата кодирования : UTC 2019-11-06 08:37:27
Программа кодирования : mkvmerge v8.2.0 ('World of Adventure') 64bit
Библиотека кодирования : libebml v1.3.1 + libmatroska v1.4.2

Видео
Идентификатор : 1
Формат : AVC
Формат/Информация : Advanced Video Codec
Профиль формата : High@L4.1
Настройки формата : CABAC / 8 Ref Frames
Параметр CABAC формата : Да
Параметр RefFrames формата : 8 кадров
Идентификатор кодека : V_MPEG4/ISO/AVC
Продолжительность : 2 ч. 26 м.
Битрейт : 4480 Кбит/сек
Ширина : 1280 пикселей
Высота : 720 пикселей
Соотношение сторон : 16:9
Режим частоты кадров : Постоянный
Частота кадров : 23,976 кадра/сек
Цветовое пространство : YUV
Субдискретизация насыщенности : 4:2:0
Битовая глубина : 8 бит
Тип развёртки : Прогрессивная
Бит/(Пиксели*Кадры) : 0.203
Размер потока : 4,57 Гбайт (78%)
Заголовок : potroks
Библиотека кодирования : x264 core 130 r2273 b3065e6
Настройки программы : cabac=1 / ref=8 / deblock=1:-3:-3 / analyse=0x3:0x133 / me=umh / subme=11 / psy=1 / psy_rd=0.96:0.00 / mixed_ref=1 / me_range=32 / chroma_me=1 / trellis=2 / 8x8dct=1 / cqm=0 / deadzone=21,11 / fast_pskip=0 / chroma_qp_offset=-2 / threads=6 / lookahead_threads=1 / sliced_threads=0 / nr=0 / decimate=0 / interlaced=0 / bluray_compat=0 / constrained_intra=0 / bframes=9 / b_pyramid=2 / b_adapt=2 / b_bias=0 / direct=3 / weightb=1 / open_gop=0 / weightp=2 / keyint=250 / keyint_min=23 / scenecut=40 / intra_refresh=0 / rc_lookahead=60 / rc=2pass / mbtree=0 / bitrate=4480 / ratetol=1.0 / qcomp=0.70 / qpmin=0 / qpmax=69 / qpstep=4 / cplxblur=20.0 / qblur=0.5 / vbv_maxrate=50000 / vbv_bufsize=62500 / nal_hrd=none / ip_ratio=1.30 / pb_ratio=1.25 / aq=1:0.90
Язык : English
Default : Да
Forced : Нет

Аудио #1
Идентификатор : 2
Формат : AC-3
Формат/Информация : Audio Coding 3
Коммерческое название : Dolby Digital
Идентификатор кодека : A_AC3
Продолжительность : 2 ч. 26 м.
Вид битрейта : Постоянный
Битрейт : 640 Кбит/сек
Каналы : 6 каналов
ChannelLayout : L R C LFE Ls Rs
Частота : 48,0 КГц
Частота кадров : 31,250 кадров/сек (1536 SPF)
Метод сжатия : С потерями
Размер потока : 669 Мбайт (11%)
Заголовок : Dub | DD 5.1 @ 640 kbps - Blu-Ray RUS
Язык : Russian
ServiceKind/String : Complete Main
Default : Да
Forced : Да

Аудио #2
Идентификатор : 3
Формат : AC-3
Формат/Информация : Audio Coding 3
Коммерческое название : Dolby Digital
Идентификатор кодека : A_AC3
Продолжительность : 2 ч. 26 м.
Вид битрейта : Постоянный
Битрейт : 640 Кбит/сек
Каналы : 6 каналов
ChannelLayout : L R C LFE Ls Rs
Частота : 48,0 КГц
Частота кадров : 31,250 кадров/сек (1536 SPF)
Метод сжатия : С потерями
Размер потока : 669 Мбайт (11%)
Заголовок : Original | DD 5.1 @ 640 kbps
Язык : English
ServiceKind/String : Complete Main
Default : Нет
Forced : Нет

Текст #1
Идентификатор : 4
Формат : UTF-8
Идентификатор кодека : S_TEXT/UTF8
Идентификатор кодека/Информация : UTF-8 Plain Text
Продолжительность : 2 ч. 14 м.
Битрейт : 72 бит/сек
ElementCount : 1520
Размер потока : 71,1 Кбайт (0%)
Заголовок : Blu-Ray
Язык : Russian
Default : Нет
Forced : Нет

Текст #2
Идентификатор : 5
Формат : UTF-8
Идентификатор кодека : S_TEXT/UTF8
Идентификатор кодека/Информация : UTF-8 Plain Text
Продолжительность : 2 ч. 15 м.
Битрейт : 71 бит/сек
ElementCount : 1452
Размер потока : 71,3 Кбайт (0%)
Заголовок : R5
Язык : Russian
Default : Нет
Forced : Нет

Текст #3
Идентификатор : 6
Формат : UTF-8
Идентификатор кодека : S_TEXT/UTF8
Идентификатор кодека/Информация : UTF-8 Plain Text
Продолжительность : 2 ч. 12 м.
Битрейт : 45 бит/сек
ElementCount : 1497
Размер потока : 44,2 Кбайт (0%)
Заголовок : Full
Язык : English
Default : Нет
Forced : Нет

Текст #4
Идентификатор : 7
Формат : UTF-8
Идентификатор кодека : S_TEXT/UTF8
Идентификатор кодека/Информация : UTF-8 Plain Text
Продолжительность : 2 ч. 13 м.
Битрейт : 53 бит/сек
ElementCount : 1991
Размер потока : 52,0 Кбайт (0%)
Заголовок : SDH
Язык : English
Default : Нет
Forced : Нет

Текст #5
Идентификатор : 8
Формат : UTF-8
Идентификатор кодека : S_TEXT/UTF8
Идентификатор кодека/Информация : UTF-8 Plain Text
Продолжительность : 2 ч. 13 м.
Битрейт : 68 бит/сек
ElementCount : 2003
Размер потока : 67,5 Кбайт (0%)
Заголовок : SDH-Colored
Язык : English
Default : Нет
Forced : Нет

Меню
00:00:00.000 : en:(01)00:00:00:000
00:01:51.236 : en:(02)00:01:51:236
00:14:33.872 : en:(03)00:14:33:872
00:30:37.752 : en:(04)00:30:37:752
00:40:55.134 : en:(05)00:40:55:134
00:49:49.444 : en:(06)00:49:49:444
00:50:55.677 : en:(07)00:50:55:677
00:53:37.213 : en:(08)00:53:37:213
01:03:50.785 : en:(09)01:03:50:785
01:06:54.969 : en:(10)01:06:54:969
01:15:31.693 : en:(11)01:15:31:693
01:21:22.419 : en:(12)01:21:22:419
01:28:04.487 : en:(13)01:28:04:487
01:39:26.668 : en:(14)01:39:26:668
01:49:30.522 : en:(15)01:49:30:522
02:01:29.740 : en:(16)02:01:29:740
[/spoiler]

Скриншоты:


[spoiler=Голодные игры: Сойка-пересмешница. Часть I (2014)]

Производство: США / Color Force, Lionsgate
Жанр: фантастика, боевик, триллер, приключения

Режиссер: Френсис Лоуренс
Актеры: Дженнифер Лоуренс, Джош Хатчерсон, Лиам Хемсворт, Вуди Харрельсон, Дональд Сазерленд, Филип Сеймур Хоффман, Джулианна Мур, Уиллоу Шилдс, Сэм Клафлин, Элизабет Бэнкс

Описание:
75-ые Голодные игры изменили все. Китнисс нарушила правила, и непоколебимое до той поры деспотичное правление Капитолия пошатнулось. У людей появилась надежда, и ее символ — Сойка-пересмешница. Теперь, чтобы освободить захваченного в плен Пита и защитить своих близких, Китнисс придется сражаться в настоящих битвах и стать еще сильнее, чем на арене игр.



Возраст: 12+ (зрителям, достигшим 12 лет)
Рейтинг MPAA: PG-13 (детям до 13 лет просмотр нежелателен)

Продолжительность: 02:03:19
Качество видео: BDRip
Перевод: Дублированный
Субтитры: русские, английские

Видео: AVC/H.264, 1280x534, ~ 5593 kbps
Аудио 1: AC3, 6 ch, 640 kbps, Русский (DUB)
Аудио 2: AC3, 6 ch, 640 kbps, Английский
Общее
Уникальный идентификатор : 228671925215123418798602655361666254646 (0xAC089C5EC805ECA0B9436B2780120736)
Полное имя : D:FILMSGolodnyie_Igry3.Golodnyie.Igry.Soyka.Peresmeshnitca.Chast.I.2014.BDRip.720p.mkv
Формат : Matroska
Версия формата : Version 4
Размер файла : 5,91 Гбайт
Продолжительность : 2 ч. 3 м.
Общий поток : 6860 Кбит/сек
Название фильма : The Hunger Games: Mockingjay - Part 1 (2014)
Дата кодирования : UTC 2019-11-06 09:04:56
Программа кодирования : mkvmerge v8.2.0 ('World of Adventure') 64bit
Библиотека кодирования : libebml v1.3.1 + libmatroska v1.4.2

Видео
Идентификатор : 1
Формат : AVC
Формат/Информация : Advanced Video Codec
Профиль формата : High@L4.1
Настройки формата : CABAC / 9 Ref Frames
Параметр CABAC формата : Да
Параметр RefFrames формата : 9 кадров
Идентификатор кодека : V_MPEG4/ISO/AVC
Продолжительность : 2 ч. 3 м.
Битрейт : 5593 Кбит/сек
Ширина : 1280 пикселей
Высота : 534 пикселя
Соотношение сторон : 2,40:1
Режим частоты кадров : Постоянный
Частота кадров : 23,976 кадра/сек
Цветовое пространство : YUV
Субдискретизация насыщенности : 4:2:0
Битовая глубина : 8 бит
Тип развёртки : Прогрессивная
Бит/(Пиксели*Кадры) : 0.341
Размер потока : 4,80 Гбайт (81%)
Заголовок : potroks
Библиотека кодирования : x264 core 146 r2538 121396c
Настройки программы : cabac=1 / ref=9 / deblock=1:-3:-3 / analyse=0x3:0x113 / me=umh / subme=11 / psy=1 / psy_rd=1.04:0.11 / mixed_ref=1 / me_range=48 / chroma_me=1 / trellis=2 / 8x8dct=1 / cqm=0 / deadzone=21,11 / fast_pskip=0 / chroma_qp_offset=-3 / threads=9 / lookahead_threads=2 / sliced_threads=0 / nr=0 / decimate=0 / interlaced=0 / bluray_compat=0 / constrained_intra=0 / bframes=10 / b_pyramid=2 / b_adapt=2 / b_bias=0 / direct=3 / weightb=1 / open_gop=0 / weightp=2 / keyint=250 / keyint_min=23 / scenecut=40 / intra_refresh=0 / rc_lookahead=60 / rc=2pass / mbtree=0 / bitrate=5593 / ratetol=1.0 / qcomp=0.70 / qpmin=0 / qpmax=69 / qpstep=4 / cplxblur=20.0 / qblur=0.5 / vbv_maxrate=14000 / vbv_bufsize=14000 / nal_hrd=none / filler=0 / ip_ratio=1.40 / pb_ratio=1.30 / aq=1:0.80
Язык : English
Default : Да
Forced : Нет

Аудио #1
Идентификатор : 2
Формат : AC-3
Формат/Информация : Audio Coding 3
Коммерческое название : Dolby Digital
Идентификатор кодека : A_AC3
Продолжительность : 2 ч. 3 м.
Вид битрейта : Постоянный
Битрейт : 640 Кбит/сек
Каналы : 6 каналов
ChannelLayout : L R C LFE Ls Rs
Частота : 48,0 КГц
Частота кадров : 31,250 кадров/сек (1536 SPF)
Метод сжатия : С потерями
Размер потока : 565 Мбайт (9%)
Заголовок : Dub | DD 5.1 @ 640 kbps - Blu-Ray RUS
Язык : Russian
ServiceKind/String : Complete Main
Default : Да
Forced : Нет

Аудио #2
Идентификатор : 3
Формат : AC-3
Формат/Информация : Audio Coding 3
Коммерческое название : Dolby Digital
Идентификатор кодека : A_AC3
Продолжительность : 2 ч. 3 м.
Вид битрейта : Постоянный
Битрейт : 640 Кбит/сек
Каналы : 6 каналов
ChannelLayout : L R C LFE Ls Rs
Частота : 48,0 КГц
Частота кадров : 31,250 кадров/сек (1536 SPF)
Метод сжатия : С потерями
Размер потока : 565 Мбайт (9%)
Заголовок : Original | DD 5.1 @ 640 kbps
Язык : English
ServiceKind/String : Complete Main
Default : Нет
Forced : Нет

Текст #1
Идентификатор : 4
Формат : UTF-8
Идентификатор кодека : S_TEXT/UTF8
Идентификатор кодека/Информация : UTF-8 Plain Text
Продолжительность : 6 м. 8 с.
Битрейт : 39 бит/сек
ElementCount : 27
Размер потока : 1,76 Кбайт (0%)
Заголовок : Forced
Язык : Russian
Default : Да
Forced : Нет

Текст #2
Идентификатор : 5
Формат : UTF-8
Идентификатор кодека : S_TEXT/UTF8
Идентификатор кодека/Информация : UTF-8 Plain Text
Продолжительность : 1 ч. 49 м.
Битрейт : 88 бит/сек
ElementCount : 1242
Размер потока : 71,3 Кбайт (0%)
Заголовок : Full
Язык : Russian
Default : Нет
Forced : Нет

Текст #3
Идентификатор : 6
Формат : UTF-8
Идентификатор кодека : S_TEXT/UTF8
Идентификатор кодека/Информация : UTF-8 Plain Text
Продолжительность : 1 ч. 49 м.
Битрейт : 56 бит/сек
ElementCount : 1372
Размер потока : 45,4 Кбайт (0%)
Заголовок : Full
Язык : English
Default : Нет
Forced : Нет

Текст #4
Идентификатор : 7
Формат : UTF-8
Идентификатор кодека : S_TEXT/UTF8
Идентификатор кодека/Информация : UTF-8 Plain Text
Продолжительность : 1 ч. 50 м.
Битрейт : 61 бит/сек
ElementCount : 1501
Размер потока : 49,4 Кбайт (0%)
Заголовок : SDH
Язык : English
Default : Нет
Forced : Нет

Меню
00:00:00.000 : en:(01)00:00:00:000
00:08:43.648 : en:(02)00:08:43:648
00:15:21.378 : en:(03)00:15:21:378
00:22:56.082 : en:(04)00:22:56:082
00:29:52.457 : en:(05)00:29:52:457
00:36:45.744 : en:(06)00:36:45:744
00:42:34.967 : en:(07)00:42:34:967
00:50:33.989 : en:(08)00:50:33:989
00:56:31.012 : en:(09)00:56:31:012
01:02:14.896 : en:(10)01:02:14:896
01:09:27.829 : en:(11)01:09:27:829
01:17:37.444 : en:(12)01:17:37:444
01:25:10.104 : en:(13)01:25:10:104
01:34:20.945 : en:(14)01:34:20:945
01:41:33.837 : en:(15)01:41:33:837
01:47:20.100 : en:(16)01:47:20:100
02:02:50.154 : en:(17)02:02:50:154
[/spoiler]

Скриншоты:


[spoiler=Голодные игры: Сойка-пересмешница. Часть II (2015)]

Производство: США / Color Force, Lionsgate, Studio Babelsberg
Жанр: фантастика, боевик, триллер, приключения

Режиссер: Френсис Лоуренс
Актеры: женнифер Лоуренс, Джош Хатчерсон, Лиам Хемсворт, Вуди Харрельсон, Дональд Сазерленд, Филип Сеймур Хоффман, Джулианна Мур, Уиллоу Шилдс, Сэм Клафлин, Элизабет Бэнкс, Махершала Али, Джена Мэлоун, Джеффри Райт, Паула Малкомсон, Стэнли Туччи, Натали Дормер, Ивэн Росс, Элден Хенсон, Уэс Чэтэм, Эжени Бондюран

Описание:
Китнисс Эвердин и своенравный Пит Мелларк пытаются выиграть гражданскую войну между самодержавным Капитолием и истерзанными войной районами Панема…



Возраст: 16+ (зрителям, достигшим 16 лет)
Рейтинг MPAA: PG-13 (детям до 13 лет просмотр нежелателен)

Продолжительность: 02:16:57
Качество видео: BDRip
Перевод: Дублированный
Субтитры: русские, английские

Видео: AVC/H.264, 1280x534, ~ 5400 kbps
Аудио 1: AC3, 6 ch, 384 kbps, Русский (DUB)
Аудио 2: AC3, 6 ch, 640 kbps, Английский
Общее
Уникальный идентификатор : 224058044102033210669181188105205566947 (0xA8900277E0C91EED82FFEAD968E1CDE3)
Полное имя : D:FILMSGolodnyie_Igry4.Golodnyie.Igry.Soyka.Peresmeshnitca.Chast.II.2015.BDRip.720p.mkv
Формат : Matroska
Версия формата : Version 4
Размер файла : 6,14 Гбайт
Продолжительность : 2 ч. 16 м.
Общий поток : 6421 Кбит/сек
Название фильма : The Hunger Games: Mockingjay - Part 1 (2014)
Дата кодирования : UTC 2019-11-06 09:11:35
Программа кодирования : mkvmerge v8.2.0 ('World of Adventure') 64bit
Библиотека кодирования : libebml v1.3.1 + libmatroska v1.4.2

Видео
Идентификатор : 1
Формат : AVC
Формат/Информация : Advanced Video Codec
Профиль формата : High@L4.1
Настройки формата : CABAC / 9 Ref Frames
Параметр CABAC формата : Да
Параметр RefFrames формата : 9 кадров
Идентификатор кодека : V_MPEG4/ISO/AVC
Продолжительность : 2 ч. 16 м.
Битрейт : 5400 Кбит/сек
Ширина : 1280 пикселей
Высота : 534 пикселя
Соотношение сторон : 2,40:1
Режим частоты кадров : Постоянный
Частота кадров : 23,976 (24000/1001) кадра/сек
Цветовое пространство : YUV
Субдискретизация насыщенности : 4:2:0
Битовая глубина : 8 бит
Тип развёртки : Прогрессивная
Бит/(Пиксели*Кадры) : 0.330
Размер потока : 5,16 Гбайт (84%)
Заголовок : potroks
Библиотека кодирования : x264 core 155 r2893M b00bcaf
Настройки программы : cabac=1 / ref=9 / deblock=1:-2:-2 / analyse=0x3:0x133 / me=umh / subme=11 / psy=1 / psy_rd=1.00:0.10 / mixed_ref=1 / me_range=48 / chroma_me=1 / trellis=2 / 8x8dct=1 / cqm=0 / deadzone=21,11 / fast_pskip=0 / chroma_qp_offset=-3 / threads=9 / lookahead_threads=2 / sliced_threads=0 / nr=0 / decimate=0 / interlaced=0 / bluray_compat=0 / constrained_intra=0 / bframes=12 / b_pyramid=2 / b_adapt=2 / b_bias=0 / direct=3 / weightb=1 / open_gop=0 / weightp=2 / keyint=240 / keyint_min=23 / scenecut=40 / intra_refresh=0 / rc_lookahead=100 / rc=2pass / mbtree=0 / bitrate=5400 / ratetol=1.0 / qcomp=0.70 / qpmin=0 / qpmax=69 / qpstep=4 / cplxblur=20.0 / qblur=0.5 / vbv_maxrate=52000 / vbv_bufsize=50000 / nal_hrd=none / filler=0 / ip_ratio=1.40 / pb_ratio=1.30 / aq=1:0.70
Язык : English
Default : Да
Forced : Нет

Аудио #1
Идентификатор : 2
Формат : AC-3
Формат/Информация : Audio Coding 3
Коммерческое название : Dolby Digital
Идентификатор кодека : A_AC3
Продолжительность : 2 ч. 16 м.
Вид битрейта : Постоянный
Битрейт : 384 Кбит/сек
Каналы : 6 каналов
ChannelLayout : L R C LFE Ls Rs
Частота : 48,0 КГц
Частота кадров : 31,250 кадров/сек (1536 SPF)
Метод сжатия : С потерями
Размер потока : 376 Мбайт (6%)
Заголовок : Dub | DD 5.1 @ 384 kbps - iTunes
Язык : Russian
ServiceKind/String : Complete Main
Default : Да
Forced : Нет

Аудио #2
Идентификатор : 3
Формат : AC-3
Формат/Информация : Audio Coding 3
Коммерческое название : Dolby Digital
Идентификатор кодека : A_AC3
Продолжительность : 2 ч. 16 м.
Вид битрейта : Постоянный
Битрейт : 640 Кбит/сек
Каналы : 6 каналов
ChannelLayout : L R C LFE Ls Rs
Частота : 48,0 КГц
Частота кадров : 31,250 кадров/сек (1536 SPF)
Метод сжатия : С потерями
Размер потока : 627 Мбайт (10%)
Заголовок : Original | DD 5.1 @ 640 kbps
Язык : English
ServiceKind/String : Complete Main
Default : Нет
Forced : Нет

Текст #1
Идентификатор : 4
Формат : UTF-8
Идентификатор кодека : S_TEXT/UTF8
Идентификатор кодека/Информация : UTF-8 Plain Text
Продолжительность : 2 ч. 4 м.
Битрейт : 81 бит/сек
ElementCount : 1350
Размер потока : 74,1 Кбайт (0%)
Заголовок : v1
Язык : Russian
Default : Нет
Forced : Нет

Текст #2
Идентификатор : 5
Формат : UTF-8
Идентификатор кодека : S_TEXT/UTF8
Идентификатор кодека/Информация : UTF-8 Plain Text
Продолжительность : 2 ч. 4 м.
Битрейт : 78 бит/сек
ElementCount : 1293
Размер потока : 71,4 Кбайт (0%)
Заголовок : v2
Язык : Russian
Default : Нет
Forced : Нет

Текст #3
Идентификатор : 6
Формат : UTF-8
Идентификатор кодека : S_TEXT/UTF8
Идентификатор кодека/Информация : UTF-8 Plain Text
Продолжительность : 2 ч. 4 м.
Битрейт : 47 бит/сек
ElementCount : 1350
Размер потока : 43,0 Кбайт (0%)
Заголовок : Full
Язык : English
Default : Нет
Forced : Нет

Текст #4
Идентификатор : 7
Формат : UTF-8
Идентификатор кодека : S_TEXT/UTF8
Идентификатор кодека/Информация : UTF-8 Plain Text
Продолжительность : 2 ч. 4 м.
Битрейт : 50 бит/сек
ElementCount : 1485
Размер потока : 46,5 Кбайт (0%)
Заголовок : SDH
Язык : English
Default : Нет
Forced : Нет

Меню
00:00:00.000 : en:00:00:00.000
00:07:39.042 : en:00:07:39.042
00:16:49.217 : en:00:16:49.217
00:24:46.985 : en:00:24:46.985
00:31:59.960 : en:00:31:59.960
00:37:11.688 : en:00:37:11.688
00:46:42.717 : en:00:46:42.717
00:55:00.881 : en:00:55:00.881
01:02:46.429 : en:01:02:46.429
01:09:27.497 : en:01:09:27.497
01:18:42.968 : en:01:18:42.968
01:29:51.136 : en:01:29:51.136
01:37:08.239 : en:01:37:08.239
01:49:01.785 : en:01:49:01.785
01:56:55.759 : en:01:56:55.759
02:03:33.239 : en:02:03:33.239
[/spoiler]

Скриншоты:



Скриншоты:


Год выпуска: 2012, 2013, 2014, 2015
Производство: США / Lionsgate, Color Force
Жанр: фантастика, боевик, триллер, приключения

Режиссер: Гэри Росс, Френсис Лоуренс
Актеры: Дженнифер Лоуренс, Джош Хатчерсон, Лиам Хемсворт, Элизабет Бэнкс, Вуди Харрельсон, Стэнли Туччи, Ленни Кравиц, Уэс Бентли, Дональд Сазерленд, Тоби Джонс

Описание:
Будущее. Деспотичное государство ежегодно устраивает показательные игры на выживание, за которыми в прямом эфире следит весь мир. Жребий участвовать в Играх выпадает юной Китнисс и тайно влюбленному в нее Питу. Они знакомы с детства, но теперь должны стать врагами. Ведь по нерушимому закону Голодных игр победить может только один из 24 участников. Судьям не важно кто выиграет, главное — зрелище. И на этот раз зрелище будет незабываемым.

Продолжительность: 02:22:33 / 02:26:13 / 02:03:19 / 02:16:57
Качество видео: BDRip
Перевод: Дублированный
Субтитры: русские, английские
Всего комментариев: 0
Добавлять комментарии могут только зарегистрированные пользователи.
[ Регистрация | Вход ]

Опрос

Отображается ли корректно наш сайт?
Всего ответов: 298