Пароль:
Войти
МУЗЫКА/MUSIC ИГРЫ/GAMES ВИДЕО/VIDEO

Статистика

Всего
Польз.
Гости
Онлайн всего: 1
Гостей: 1
Пользователей: 0
fayfa
Администраторы
8740
katrin
Модераторы
8144
Nik
VIP пользователи
6876
stigmata
Администраторы
6228
Vanok
VIP пользователи
3678

Онлайн радио

Каталог торрентов

Сообщить об отсутствие торрент файла!

Анонім / Анон (2018) BDRip 720p {Ukr}

Добавил: stigmata Дата: 05 Mar 2019 Просмотров: 19
Скачать Анонім / Анон (2018) BDRip 720p {Ukr} torrent


Назва: Анонім / Анон
Оригінальна назва: Anon
Рік: 2018
Жанр: фантастика, трилер
Режисер: Ендрю Ніккол
Актори: Клайв Овен, Аманда Сейфрід, Колм Фіор, Соня Волгер, Марк О’Браєн, Джо Пінг, Іддо Голдберг

Сюжет: Події розгортаються у фантастичному тоталітарному світі майбутнього. Усі люди знаходяться під всеохоплюючим контролем влади. Ніхто не має приватного життя чи неформальних стосунків. Усе про всіх відомо, а будь-які стосунки між людьми давно викорінено. Головний герой – поліцейський на ім'я Сол Фріленд (Клайв Овен). Він жорстоко та безжально бореться зі злочинністю, викорінюючи будь-яку непокору режиму. Про кожну людину, яку він бачить, він одразу ж отримує інформацію. Та якось на вулиці йому зустрілась дівчина (Аманда Сейфрід), досьє якої було порожнім. Її ніби не існувало в цьому світі. Ближче знайомство з дівчиною відкриває для Сола паралельний світ, про існування якого він не здогадувався.

КиноПоиск:
0.00 (0 голосов)IMDB:
0.00 (0 голосов)Країна: Німеччина, США, Канада
Студія: K5 Film, K5 International, K5 Media Group
Тривалість: 01:39:49
Переклад: українськийпрофесійний дубльований

Формат: MKV, H.264
Якість: BDRip 720p
Відео: h264 (High), yuv420p, 1280x534 [PAR 1:1 DAR 640:267], 1276 kbps, 23.98 fps, 1k tbn, 47.95 tbc
Аудіо: AC3, 48000 Hz, stereo, fltp, 192 kb/sx264 info + MediaInfoavs [info]: 1280x534p 1:1 @ 24000/1001 fps (cfr)
x264 [info]: using SAR=1/1
x264 [info]: using cpu capabilities: MMX2 SSE2Fast SSSE3 Cache64
x264 [info]: profile High, level 4.1, 4:2:0, 8-bit
x264 [info]: frame I:1248 Avg QP:12.79 size: 67963
x264 [info]: frame P:25289 Avg QP:16.28 size: 16183
x264 [info]: frame B:117064 Avg QP:17.42 size: 3939
x264 [info]: consecutive B-frames: 1.9% 1.6% 3.0% 10.4% 12.4% 33.1% 9.5% 7.6% 4.6% 5.2% 3.6% 3.2% 3.9%
x264 [info]: mb I I16..4: 13.7% 63.0% 23.4%
x264 [info]: mb P I16..4: 2.3% 7.6% 1.7% P16..4: 44.8% 13.0% 12.5% 0.4% 0.1% skip:17.5%
x264 [info]: mb B I16..4: 0.2% 0.4% 0.2% B16..8: 32.3% 3.8% 0.7% direct: 2.5% skip:59.8% L0:45.9% L1:49.2% BI: 4.9%
x264 [info]: 8x8 transform intra:62.1% inter:60.2%
x264 [info]: coded y,uvDC,uvAC intra: 57.5% 50.0% 28.0% inter: 7.2% 11.1% 0.6%
x264 [info]: i16 v,h,dc,p: 49% 20% 6% 25%
x264 [info]: i8 v,h,dc,ddl,ddr,vr,hd,vl,hu: 26% 17% 27% 4% 5% 6% 5% 5% 5%
x264 [info]: i4 v,h,dc,ddl,ddr,vr,hd,vl,hu: 33% 23% 13% 4% 6% 5% 6% 4% 5%
x264 [info]: i8c dc,h,v,p: 62% 15% 19% 4%
x264 [info]: Weighted P-Frames: Y:3.3% UV:1.3%
x264 [info]: ref P L0: 49.1% 5.7% 18.0% 7.8% 6.3% 5.3% 4.6% 3.0% 0.2% 0.0%
x264 [info]: ref B L0: 69.0% 13.5% 8.4% 3.7% 3.0% 1.8% 0.6%
x264 [info]: ref B L1: 91.1% 8.9%
x264 [info]: kb/s:1275.83
encoded 143601 frames, 4.32 fps, 1275.83 kb/s

General
Unique ID : 547011784750990856962383777041242933 (0x6959C363100CAEA93CD8FFD3445B35)
Complete name : /mnt/disk/Video/Films/Anon.2018.Ukr.Dub-2.0.BDRip720p-mini.mkv
Format : Matroska
Format version : Version 4 / Version 2
File size : 1.02 GiB
Duration : 1 h 39 min
Overall bit rate : 1 470 kb/s
Movie name : Анонім / Анон / Anon (2018) BDRip 720p-mini | by KinoGadget
Encoded date : UTC 2019-03-05 06:41:29
Writing application : mkvmerge v8.2.0 ('World of Adventure') 64bit
Writing library : libebml v1.3.1 + libmatroska v1.4.2
Cover : Yes
Attachments : cover.jpg

Video
ID : 1
Format : AVC
Format/Info : Advanced Video Codec
Format profile : [email protected]
Format settings : CABAC / 8 Ref Frames
Format settings, CABAC : Yes
Format settings, RefFrames : 8 frames
Codec ID : V_MPEG4/ISO/AVC
Duration : 1 h 39 min
Bit rate : 1 276 kb/s
Width : 1 280 pixels
Height : 534 pixels
Display aspect ratio : 2.40:1
Frame rate mode : Constant
Frame rate : 23.976 (24000/1001) FPS
Color space : YUV
Chroma subsampling : 4:2:0
Bit depth : 8 bits
Scan type : Progressive
Bits/(Pixel*Frame) : 0.078
Stream size : 911 MiB (87%)
Title : Анонім / Анон / Anon (2018) BDRip 720p-mini | by KinoGadget
Writing library : x264 core 157 r2935 545de2f
Encoding settings : cabac=1 / ref=8 / deblock=1:-2:-1 / analyse=0x3:0x133 / me=umh / subme=7 / psy=1 / psy_rd=1.00:0.00 / mixed_ref=1 / me_range=32 / chroma_me=1 / trellis=2 / 8x8dct=1 / cqm=0 / deadzone=21,11 / fast_pskip=0 / chroma_qp_offset=-2 / threads=3 / lookahead_threads=1 / sliced_threads=0 / nr=0 / decimate=1 / interlaced=0 / bluray_compat=0 / constrained_intra=0 / bframes=12 / b_pyramid=2 / b_adapt=2 / b_bias=0 / direct=1 / weightb=1 / open_gop=0 / weightp=2 / keyint=250 / keyint_min=25 / scenecut=40 / intra_refresh=0 / rc_lookahead=60 / rc=crf / mbtree=1 / crf=18.0 / qcomp=0.60 / qpmin=0 / qpmax=69 / qpstep=4 / ip_ratio=1.40 / aq=1:1.00
Default : Yes
Forced : Yes

Audio
ID : 2
Format : AC-3
Format/Info : Audio Coding 3
Format settings, Endianness : Big
Codec ID : A_AC3
Duration : 1 h 39 min
Bit rate mode : Constant
Bit rate : 192 kb/s
Channel(s) : 2 channels
Channel positions : Front: L R
Sampling rate : 48.0 kHz
Frame rate : 31.250 FPS (1536 SPF)
Bit depth : 16 bits
Compression mode : Lossy
Stream size : 137 MiB (13%)
Language : Ukrainian
Service kind : Complete Main
Default : Yes
Forced : Yes



Магнитная ссылка
Всего комментариев: 0
Добавлять комментарии могут только зарегистрированные пользователи.
[ Регистрация | Вход ]

Опрос

Хотели бы вы вернуть СССР ?
Всего ответов: 493