Пароль:
Войти
МУЗЫКА/MUSIC ИГРЫ/GAMES ВИДЕО/VIDEO

Статистика

Всего
Польз.
Гости
Онлайн всего: 20
Гостей: 20
Пользователей: 0
fayfa
Администраторы
10756
Nik
VIP пользователи
8525
katrin
Модераторы
8427
stigmata
Администраторы
8251
vika0509
Модераторы
4691

Онлайн радио

Каталог торрентов

182
Пиды
214
Сиды

Времена года в дикой природе Америки / America's Wild Seasons (2019) UHDTV [H.265/2160p] [4K, HDR, 10-bit, 50fps] (сезон 1, серии 1-4 из 4)

Добавил: fayfa Дата: 10 Feb 2020 Просмотров: 27
Скачать Времена года в дикой природе Америки / America's Wild Seasons

Производство: США, MBM TV & Tamarin Productions
Жанр: Документальный, природа, флора, фауна

Режиссер: Джефф Моралес

Описание:
«Американские дикие сезоны» - это знаковый документальный четырёхсерийный фильм, о американской дикой природе запечатленной в течение одного года. На земле, в воздухе и под водой, изменяющиеся условия создают особую повествовательную нить, как каждый дикий житель сталкивается с проблемами жизни и смерти.

Релиз от: Мастер 5
Продолжительность: серии x ~00:44:00
Качество видео: UHDTV, 2160p (HDR)
Перевод: Одноголосый закадровый, профессиональный
Субтитры: отсутствуют

Видео: HEVC/H.265, 3840x2160, ~15,7 Mbps, [10-bit, 50fps]
Аудио#1: MP2, 2 ch, 128 Kbps | Русский
Аудио#2: MP2, 2 ch, 128 Kbps | Английский
[spoiler=Mediainfo: (тех. данные всех серий идентичны)]
Общее
Идентификатор : 1 (0x1)
Полное имя : F:КИНОВремена года в дикой природе Америки3. Осень.ts
Формат : MPEG-TS
Размер файла : 5,61 Гбайт
Продолжительность : 47 м. 50 с.
Режим общего битрейта : Переменный
Общий поток : 16,8 Мбит/сек

Видео
Идентификатор : 513 (0x201)
Идентификатор меню : 1 (0x1)
Формат : HEVC
Формат/Информация : High Efficiency Video Coding
Профиль формата : Main 10@L5.1@Main
Идентификатор кодека : 36
Продолжительность : 47 м. 50 с.
Битрейт : 15,7 Мбит/сек
Ширина : 3840 пикселей
Высота : 2160 пикселей
Соотношение сторон : 16:9
Частота кадров : 50,000 кадров/сек
Стандарт вещания : Component
Цветовое пространство : YUV
Субдискретизация насыщенности : 4:2:0
Битовая глубина : 10 бит
Бит/(Пиксели*Кадры) : 0.038
Размер потока : 5,24 Гбайт (94%)
Цветовой диапазон : Limited
Основные цвета : BT.709
Характеристики трансфера : BT.709
Коэффициенты матрицы : BT.709

Аудио #1
Идентификатор : 514 (0x202)
Идентификатор меню : 1 (0x1)
Формат : MPEG Audio
Версия формата : Version 1
Профиль формата : Layer 2
Идентификатор кодека : 3
Продолжительность : 47 м. 50 с.
Вид битрейта : Постоянный
Битрейт : 128 Кбит/сек
Каналы : 2 канала
Частота : 48,0 КГц
Частота кадров : 41,667 кадра/сек (1152 SPF)
Метод сжатия : С потерями
Размер потока : 43,8 Мбайт (1%)
Язык : Russian

Аудио #2
Идентификатор : 515 (0x203)
Идентификатор меню : 1 (0x1)
Формат : MPEG Audio
Версия формата : Version 1
Профиль формата : Layer 2
Идентификатор кодека : 3
Продолжительность : 47 м. 50 с.
Вид битрейта : Постоянный
Битрейт : 128 Кбит/сек
Каналы : 2 канала
Частота : 48,0 КГц
Частота кадров : 41,667 кадра/сек (1152 SPF)
Метод сжатия : С потерями
Размер потока : 43,8 Мбайт (1%)
Язык : English
[/spoiler]

Скриншоты:

Всего комментариев: 0
Добавлять комментарии могут только зарегистрированные пользователи.
[ Регистрация | Вход ]

Опрос

Какой у вас браузер?
Всего ответов: 523