Пароль:
Войти
МУЗЫКА/MUSIC ИГРЫ/GAMES ВИДЕО/VIDEO

Статистика

Всего
Польз.
Гости
Онлайн всего: 15
Гостей: 15
Пользователей: 0
fayfa
Администраторы
10101
katrin
Модераторы
8338
Nik
VIP пользователи
8026
stigmata
Администраторы
7643
Vanok
VIP пользователи
4339

Онлайн радио

Каталог торрентов

178
Пиды
303
Сиды

NGW: Поместье луговой собачки / Prairie Dog Manor (2019) HDTV [H.264/1080i-LQ] (серии 1-6 из 12) (Обновляемая)

Добавил: fayfa Дата: 12 Oct 2019 Просмотров: 32
Скачать NGW: Поместье луговой собачки / Prairie Dog Manor (2019) HDTV

Производство:США, Radley Studios, Nat Geo Wild
Жанр:Документальный, природа, флора, фауна

Режиссер:Бью Нилссон

Описание:
Луговых собачек относят к типичным обитателям равнин, раскинувшихся в западной части Северной Америки. Забавные зверьки входят в семейство беличьих. До начала освоения поросших травами территорий численность проживавших в этих пределах животных достигала 100 млн. особей.
Сериал позволит вам глубже заглянуть в мир луговых собачек, обитающих на севере штате Нью-Мексико и увидеть их уникальные манеры поведения и взаимоотношения.

Релиз от:Zakol
Продолжительность:серии x ~00:22:00
Качество видео:HDTV
Перевод:Одноголосый закадровый, профессиональный (Велес)
Субтитры:отсутствуют

Видео:AVC/H.264, 1920x1080, ~7038 Kbps
Аудио#1:MP2, 2 ch, 192 Kbps | Русский (текст читал: Олег Белов)
Аудио#2:MP2, 2 ch, 192 Kbps | Английский
[spoiler=Mediainfo: (тех. данные всех серий идентичны)]
Общее
Идентификатор : 1 (0x1)
Полное имя : F:КИНОПоместье луг. собачки 1080 (2019)1 Поместье луговой собачки.ts
Формат : MPEG-TS
Размер файла : 1,20 Гбайт
Продолжительность : 21 м. 58 с.
Режим общего битрейта : Переменный
Общий поток : 7812 Кбит/сек

Видео
Идентификатор : 1154 (0x482)
Идентификатор меню : 135 (0x87)
Формат : AVC
Формат/Информация : Advanced Video Codec
Профиль формата : Main@L4
Настройки формата : CABAC / 4 Ref Frames
Параметр CABAC формата : Да
Параметр RefFrames формата : 4 кадра
Идентификатор кодека : 27
Продолжительность : 21 м. 58 с.
Битрейт : 7038 Кбит/сек
Ширина : 1920 пикселей
Высота : 1080 пикселей
Соотношение сторон : 16:9
Частота кадров : 25,000 кадров/сек
Стандарт вещания : Component
Цветовое пространство : YUV
Субдискретизация насыщенности : 4:2:0
Битовая глубина : 8 бит
Тип развёртки : Чересстрочная
Метод сохранения типа развёртки : Раздельные поля
Порядок развёртки : Верхнее поле первое
Бит/(Пиксели*Кадры) : 0.136
Размер потока : 1,08 Гбайт (90%)
Цветовой диапазон : Limited
Основные цвета : BT.709
Характеристики трансфера : BT.709
Коэффициенты матрицы : BT.709

Аудио #1
Идентификатор : 1155 (0x483)
Идентификатор меню : 135 (0x87)
Формат : MPEG Audio
Версия формата : Version 1
Профиль формата : Layer 2
Идентификатор кодека : 3
Продолжительность : 21 м. 58 с.
Вид битрейта : Постоянный
Битрейт : 192 Кбит/сек
Каналы : 2 канала
Частота : 48,0 КГц
Частота кадров : 41,667 кадра/сек (1152 SPF)
Метод сжатия : С потерями
Размер потока : 30,2 Мбайт (2%)
Язык : Russian

Аудио #2
Идентификатор : 1156 (0x484)
Идентификатор меню : 135 (0x87)
Формат : MPEG Audio
Версия формата : Version 1
Профиль формата : Layer 2
Идентификатор кодека : 3
Продолжительность : 21 м. 58 с.
Вид битрейта : Постоянный
Битрейт : 192 Кбит/сек
Каналы : 2 канала
Частота : 48,0 КГц
Частота кадров : 41,667 кадра/сек (1152 SPF)
Метод сжатия : С потерями
Размер потока : 30,2 Мбайт (2%)
Язык : English
[/spoiler]



Скриншоты:
Всего комментариев: 0
Добавлять комментарии могут только зарегистрированные пользователи.
[ Регистрация | Вход ]

Опрос

Хотели бы вы вернуть СССР ?
Всего ответов: 538