Пароль:
Войти
МУЗЫКА/MUSIC ИГРЫ/GAMES ВИДЕО/VIDEO

Статистика

Всего
Польз.
Гости
Онлайн всего: 34
Гостей: 34
Пользователей: 0
fayfa
Администраторы
10581
katrin
Модераторы
8409
Nik
VIP пользователи
8389
stigmata
Администраторы
8089
Vanok
VIP пользователи
4566

Онлайн радио

Каталог торрентов

127
Пиды
218
Сиды

Как устроен мир (2018-2019) HDTVRip [H.264/720p-LQ] (серии 60 из 60)

Добавил: stigmata Дата: 06 Dec 2019 Просмотров: 41
Скачать Как устроен мир (2018-2019) HDTVRip [H.264/720p-LQ] (серии 60

Производство: Россия, РЕН ТВ
Жанр: Документальный

Режиссер: Артем Лядов
Участники: Тимофей Баженов

Описание:
Каждый выпуск не уступает голливудскому фильму-катастрофе. Тимофей Баженов бросает вызов беспощадным стихиям и преподносит научные факты так, что от них невозможно оторваться!

Продолжительность: 60 x ~ 00:49:00
Качество видео: HDTVRip
Язык озвучки: Русский
Субтитры: отсутствуют

Видео: AVC/H.264, 1280x720, ~1389 Kbps
Аудио: AAC, 2 ch, 128 Kbps
[spoiler=Mediainfo: (тех. данные всех серий идентичны)]
Общее
Уникальный идентификатор : 86893403185448819556426374988154097339 (0x415F0F8B1D1CC2C285B65CE3DD194EBB)
Полное имя : F:КИНОKak ustroen mir..2018-2019.MPEG-4 AVC.HDTVRip30 Зодиак.Как устроен мир.2019.MPEG-4 AVC.HDTVRip (720p).mkv
Формат : Matroska
Версия формата : Version 4
Размер файла : 533 Мбайт
Продолжительность : 49 м. 0 с.
Общий поток : 1519 Кбит/сек
Дата кодирования : UTC 2019-12-06 04:41:39
Программа кодирования : mkvmerge v40.0.0 ('Old Town Road + Pony') 64-bit
Библиотека кодирования : libebml v1.3.9 + libmatroska v1.5.2

Видео
Идентификатор : 1
Формат : AVC
Формат/Информация : Advanced Video Codec
Профиль формата : Main@L3.1
Настройки формата : CABAC / 3 Ref Frames
Параметр CABAC формата : Да
Параметр RefFrames формата : 3 кадра
Идентификатор кодека : V_MPEG4/ISO/AVC
Продолжительность : 49 м. 0 с.
Битрейт : 1389 Кбит/сек
Ширина : 1280 пикселей
Высота : 720 пикселей
Соотношение сторон : 16:9
Режим частоты кадров : Постоянный
Частота кадров : 25,000 кадров/сек
Цветовое пространство : YUV
Субдискретизация насыщенности : 4:2:0
Битовая глубина : 8 бит
Тип развёртки : Прогрессивная
Бит/(Пиксели*Кадры) : 0.060
Размер потока : 487 Мбайт (91%)
Библиотека кодирования : x264 core 155 r2901 7d0ff22
Default : Да
Forced : Нет
Цветовой диапазон : Limited
Основные цвета : BT.709
Характеристики трансфера : BT.709
Коэффициенты матрицы : BT.709

Аудио
Идентификатор : 2
Формат : AAC LC
Формат/Информация : Advanced Audio Codec Low Complexity
Идентификатор кодека : A_AAC-2
Продолжительность : 49 м. 0 с.
Битрейт : 128 Кбит/сек
Каналы : 2 канала
ChannelLayout : L R
Частота : 44,1 КГц
Частота кадров : 43,066 кадра/сек (1024 SPF)
Метод сжатия : С потерями
Размер потока : 44,9 Мбайт (8%)
Default : Да
Forced : Нет
[/spoiler]


Скриншоты:


Всего комментариев: 0
Добавлять комментарии могут только зарегистрированные пользователи.
[ Регистрация | Вход ]

Опрос

Какой у вас браузер?
Всего ответов: 507