Пароль:
Войти
МУЗЫКА/MUSIC ИГРЫ/GAMES ВИДЕО/VIDEO

Статистика

Всего
Польз.
Гости
Онлайн всего: 27
Гостей: 27
Пользователей: 0
fayfa
Администраторы
10381
katrin
Модераторы
8375
Nik
VIP пользователи
8237
stigmata
Администраторы
7905
Vanok
VIP пользователи
4474

Онлайн радио

Каталог торрентов

31
Пиды
171
Сиды

Discovery. Загадки высадки на Луну / Truth Behind the Moon Landing (2019) HDTVRip (серии 1-4 из 6) (Обновляемая)

Добавил: stigmata Дата: 28 Nov 2019 Просмотров: 45
Скачать Discovery. Загадки высадки на Луну / Truth Behind the Moon Lan

Производство:США, Big Fish Entertainment, Discovery Channel
Жанр:Документальный, космос, расследование

Режиссер:Машума Аббас

Описание:
Посадка на Луну в 1969 году считается одним из величайших достижений человечества и эпическим путешествием трех легендарных космонавтов. Но так ли это? За прошедшие годы возникло множество теорий, утверждавших, что прилунение было имитацией, величайшим мошенничеством в истории. В этой программе эксперты и ученые изучают все варианты, чтобы раз и навсегда развеять оставшиеся сомнения.


Релиз от:Starik60
Продолжительность:00:43:38
Перевод:Одноголосый закадровый, профессиональный
Субтитры:отсутствуют

Видео:XviD, 720x400, ~1600 Kbps
Аудио:AC3, 2 ch, 192 Kbps
[spoiler=Mediainfo: (тех. данные всех серий идентичны)]
Общее
Полное имя : F:КИНОЗагадки высадки на Луну HDTVRip Starik601 Загадки высадки на Луну by Starik60.avi
Формат : AVI
Формат/Информация : Audio Video Interleave
Размер файла : 562 Мбайт
Продолжительность : 43 м. 38 с.
Общий поток : 1802 Кбит/сек
Программа кодирования : VirtualDubMod 1.5.10.3 | www.virtualdub-fr.org|| (build 2550/release)
Библиотека кодирования : VirtualDubMod build 2550/release

Видео
Идентификатор : 0
Формат : MPEG-4 Visual
Профиль формата : Advanced Simple@L5
Настройки формата : BVOP1 / Custom Matrix
Параметр BVOP формата : 1
Параметр QPel формата : Нет
Параметр GMC формата : Без точки перехода
Параметр матрицы формата : Выборочная
Идентификатор кодека : XVID
Идентификатор кодека/Подсказка : XviD
Продолжительность : 43 м. 38 с.
Битрейт : 1600 Кбит/сек
Ширина : 720 пикселей
Высота : 400 пикселей
Соотношение сторон : 16:9
Частота кадров : 25,000 кадров/сек
Цветовое пространство : YUV
Субдискретизация насыщенности : 4:2:0
Битовая глубина : 8 бит
Тип развёртки : Прогрессивная
Метод сжатия : С потерями
Бит/(Пиксели*Кадры) : 0.222
Размер потока : 499 Мбайт (89%)
Библиотека кодирования : XviD 73

Аудио
Идентификатор : 1
Формат : AC-3
Формат/Информация : Audio Coding 3
Коммерческое название : Dolby Digital
Идентификатор кодека : 2000
Продолжительность : 43 м. 38 с.
Вид битрейта : Постоянный
Битрейт : 192 Кбит/сек
Каналы : 2 канала
ChannelLayout : L R
Частота : 48,0 КГц
Частота кадров : 31,250 кадров/сек (1536 SPF)
Метод сжатия : С потерями
Размер потока : 59,9 Мбайт (11%)
Выравнивание : Разделение по промежуткам
Продолжительность промежутка : 40 мс. (1,00 видеокадр)
Время предзагрузки промежутка : 500 мс.
ServiceKind/String : Complete Main
[/spoiler]


Скриншоты:

Всего комментариев: 0
Добавлять комментарии могут только зарегистрированные пользователи.
[ Регистрация | Вход ]

Опрос

Хотели бы вы вернуть СССР ?
Всего ответов: 548