Пароль:
Войти
МУЗЫКА/MUSIC ИГРЫ/GAMES ВИДЕО/VIDEO

Статистика

Всего
Польз.
Гости
Онлайн всего: 25
Гостей: 25
Пользователей: 0
fayfa
Администраторы
10585
katrin
Модераторы
8412
Nik
VIP пользователи
8396
stigmata
Администраторы
8099
Vanok
VIP пользователи
4575

Онлайн радио

Каталог торрентов

31
Пиды
105
Сиды

Discovery. Джереми Уэйд: Тёмные воды / Jeremy Wade's Dark Waters (2019) HDTVRip (Сезон 1, серии 1-4 из 8) (Обновляемая)

Добавил: stigmata Дата: 22 Sept 2019 Просмотров: 60
Скачать Discovery. Джереми Уэйд: Тёмные воды / Jeremy Wade's Dark Wate

Производство: США, Icon Films, Discovery Channel
Жанр: Документальный, рыбалка, расследование

Режиссер: Джоди Бартон, Вики Метьювс
Участники: Джереми Уэйд

Описание:
Какие тайны скрываются в водных пучинах и глубинах человеческой души? Следите за приключениями рыболова-путешественника Джереми Уэйда на Аляске и найдете ответ!


Релиз от: Starik60
Продолжительность: серии x ~ 00:44:00
Качество видео: HDTVRip
Перевод: Одноголосый закадровый, профессиональный
Субтитры: отсутствуют

Видео: XviD, 720x400, ~1400 Kbps
Аудио: AC3, 2 ch, 192 Kbps
[spoiler=Mediainfo: (тех. данные всех серий идентичны)]
Общее
Полное имя : F:КИНОДжереми Уэйд тёмные воды Starik601 Джереми Уэйд тёмные воды by Starik60.avi
Формат : AVI
Формат/Информация : Audio Video Interleave
Размер файла : 565 Мбайт
Продолжительность : 43 м. 50 с.
Общий поток : 1802 Кбит/сек
Программа кодирования : VirtualDubMod 1.5.10.3 | www.virtualdub-fr.org || (build 2550/release)
Библиотека кодирования : VirtualDubMod build 2550/release

Видео
Идентификатор : 0
Формат : MPEG-4 Visual
Профиль формата : Advanced Simple@L5
Настройки формата : BVOP1 / Custom Matrix
Параметр BVOP формата : 1
Параметр QPel формата : Нет
Параметр GMC формата : Без точки перехода
Параметр матрицы формата : Выборочная
Идентификатор кодека : XVID
Идентификатор кодека/Подсказка : XviD
Продолжительность : 43 м. 50 с.
Битрейт : 1600 Кбит/сек
Ширина : 720 пикселей
Высота : 400 пикселей
Соотношение сторон : 16:9
Частота кадров : 25,000 кадров/сек
Цветовое пространство : YUV
Субдискретизация насыщенности : 4:2:0
Битовая глубина : 8 бит
Тип развёртки : Прогрессивная
Метод сжатия : С потерями
Бит/(Пиксели*Кадры) : 0.222
Размер потока : 502 Мбайт (89%)
Библиотека кодирования : XviD 73

Аудио
Идентификатор : 1
Формат : AC-3
Формат/Информация : Audio Coding 3
Коммерческое название : Dolby Digital
Идентификатор кодека : 2000
Продолжительность : 43 м. 50 с.
Вид битрейта : Постоянный
Битрейт : 192 Кбит/сек
Каналы : 2 канала
ChannelLayout : L R
Частота : 48,0 КГц
Частота кадров : 31,250 кадров/сек (1536 SPF)
Битовая глубина : 16 бит
Метод сжатия : С потерями
Размер потока : 60,2 Мбайт (11%)
Выравнивание : Разделение по промежуткам
Продолжительность промежутка : 40 мс. (1,00 видеокадр)
Время предзагрузки промежутка : 500 мс.
ServiceKind/String : Complete Main
[/spoiler]



Скриншоты:

Всего комментариев: 0
Добавлять комментарии могут только зарегистрированные пользователи.
[ Регистрация | Вход ]

Опрос

Отображается ли корректно наш сайт?
Всего ответов: 303