Пароль:
Войти
МУЗЫКА/MUSIC ИГРЫ/GAMES ВИДЕО/VIDEO

Статистика

Всего
Польз.
Гости
Онлайн всего: 17
Гостей: 17
Пользователей: 0
fayfa
Администраторы
10588
katrin
Модераторы
8413
Nik
VIP пользователи
8406
stigmata
Администраторы
8108
Vanok
VIP пользователи
4579

Онлайн радио

Каталог торрентов

83
Пиды
395
Сиды

Discovery. Аляска: Семья из леса / Alaskan Bush People (2019) HDTVRip [H.264/720p-LQ] [50fps] (Сезон 7, серии 1-9 из ?) (Обновляемая)

Добавил: Nik Дата: 21 Sept 2019 Просмотров: 76
Скачать Discovery. Аляска: Семья из леса / Alaskan Bush People (2019)

Производство: США, Park Slope Productions, Discovery Channel
Жанр: Документальный, выживание, история

Режиссер: Т.Дж. Шанкс, Джейсон Берман, Эзра Эпвелл
Участники: Билл Браун, Гэйб Браун, Мэтт Браун

Описание:
В глуши Аляски живет семья, все дети которой родились и выросли среди дикой природы. Билли Браун, его жена Эми и их семеро детей – пятеро сыновей и две дочери – удалились от цивилизации и почти не контактируют с другими людьми. Они даже выработали уникальный диалект и называют себя «волчьей стаей». Едва ли в наше время во всей Америке найдется вторая такая семья. После женитьбы Ноа в семействе появляется еще одна дочка. Как Брауны с ней уживутся, и уживутся ли вовсе?



Релиз от: Starik60
Продолжительность: серии x ~ 00:44:00
Качество видео: HDTVRip
Перевод: Многоголосый закадровый, профессиональный
Субтитры: отсутствуют

Видео: AVC/H.264, 1280x720, ~4000 Kbps, 50fps
Аудио: MP2, 2 ch, 192 Kbps
[spoiler=Mediainfo: (тех. данные всех серий идентичны)]
Общее
Уникальный идентификатор : 303909482834807442782661737797318535048 (0xE4A2D65BBFC1DEBDFF365871D256E788)
Полное имя : F:КИНОАляска семья из леса HDTVRip 720p S07 Starik601 Аляска семья из леса by Starik60.mkv
Формат : Matroska
Версия формата : Version 2
Размер файла : 1,28 Гбайт
Продолжительность : 43 м. 47 с.
Режим общего битрейта : Постоянный
Общий поток : 4197 Кбит/сек
Программа кодирования : Lavf54.63.104
Библиотека кодирования : Lavf54.63.104

Видео
Идентификатор : 1
Формат : AVC
Формат/Информация : Advanced Video Codec
Профиль формата : High@L4.1
Настройки формата : CABAC / 3 Ref Frames
Параметр CABAC формата : Да
Параметр RefFrames формата : 3 кадра
Идентификатор кодека : V_MPEG4/ISO/AVC
Продолжительность : 43 м. 47 с.
Вид битрейта : Постоянный
Битрейт : 4000 Кбит/сек
Ширина : 1280 пикселей
Высота : 720 пикселей
Соотношение сторон : 16:9
Режим частоты кадров : Постоянный
Частота кадров : 50,000 кадров/сек
Стандарт вещания : PAL
Цветовое пространство : YUV
Субдискретизация насыщенности : 4:2:0
Битовая глубина : 8 бит
Тип развёртки : Прогрессивная
Бит/(Пиксели*Кадры) : 0.087
Размер потока : 1,20 Гбайт (93%)
Default : Нет
Forced : Нет
Цветовой диапазон : Limited
Основные цвета : BT.709
Характеристики трансфера : BT.709
Коэффициенты матрицы : BT.709

Аудио
Идентификатор : 2
Формат : MPEG Audio
Версия формата : Version 1
Профиль формата : Layer 2
Идентификатор кодека : A_MPEG/L2
Идентификатор кодека/Подсказка : MP2
Продолжительность : 43 м. 47 с.
Вид битрейта : Постоянный
Битрейт : 192 Кбит/сек
Каналы : 2 канала
Частота : 48,0 КГц
Метод сжатия : С потерями
Задержка видео : 20 мс.
Размер потока : 60,1 Мбайт (5%)
Язык : English
Default : Да
Forced : Нет
[/spoiler]


Скриншоты:
Всего комментариев: 0
Добавлять комментарии могут только зарегистрированные пользователи.
[ Регистрация | Вход ]

Опрос

Какой у вас браузер?
Всего ответов: 507