Пароль:
Войти
МУЗЫКА/MUSIC ИГРЫ/GAMES ВИДЕО/VIDEO

Статистика

Всего
Польз.
Гости
Онлайн всего: 20
Гостей: 20
Пользователей: 0
fayfa
Администраторы
10835
Nik
VIP пользователи
8588
katrin
Модераторы
8435
stigmata
Администраторы
8333
vika0509
Модераторы
4786

Онлайн радио

Каталог торрентов

167
Пиды
377
Сиды

BBC: Живой мир / BBC: Natural World (2009-2014) HDTV [H.264/1080i-LQ] (7 эпизодов)

Добавил: stigmata Дата: 06 Feb 2020 Просмотров: 41
Скачать BBC: Живой мир / BBC: Natural World (2009-2014) HDTV [H.264/10

Производство: Великобритания, BBC and Animal Planet
Жанр: Документальный, природа, флора, фауна

Режиссер: Джо Скофилд, Таппенс Стоун, Дункан Чард, Том Мастил

Описание:
Рассказы о живой природе.


Релиз от: boba88
Продолжительность: серии x ~00:48:51
Качество видео: HDTV
Перевод: Одноголосый закадровый, профессиональный (SDI Media)
Субтитры: отсутствуют

Видео: AVC/H.264, 1920x1080, ~4159 Kbps
Аудио#1: MP2, 2 ch, 192 Kbps | Русский
Аудио#2: MP2, 2 ch, 192 Kbps | Английский
[spoiler=Mediainfo: (тех. данные всех серий идентичны)]
Общее
Уникальный идентификатор : 196178501851220340341510797554326303800 (0x93969AE8E253B6FDBA43F715D275F438)
Полное имя : F:КИНОNatural WorldNatural World S29E01 The Monkey-Eating Eagle of Venezuela (1080i).mkv
Формат : Matroska
Версия формата : Version 4
Размер файла : 1,58 Гбайт
Продолжительность : 48 м. 51 с.
Общий поток : 4636 Кбит/сек
Название фильма : Natural World S29E01 The Monkey-Eating Eagle of Venezuela
Дата кодирования : UTC 2020-02-05 21:30:13
Программа кодирования : mkvmerge v7.7.0 ('Six Voices') 64bit built on Feb 28 2015 23:39:33
Библиотека кодирования : libebml v1.3.1 + libmatroska v1.4.2

Видео
Идентификатор : 1
Формат : AVC
Формат/Информация : Advanced Video Codec
Профиль формата : High@L4
Настройки формата : CABAC / 3 Ref Frames
Параметр CABAC формата : Да
Параметр RefFrames формата : 3 кадра
Идентификатор кодека : V_MPEG4/ISO/AVC
Битрейт : 4159 Кбит/сек
Ширина : 1920 пикселей
Высота : 1080 пикселей
Соотношение сторон : 16:9
Режим частоты кадров : Переменный
Частота кадров в оригинале : 25,000 кадров/сек
Стандарт вещания : Component
Цветовое пространство : YUV
Субдискретизация насыщенности : 4:2:0
Битовая глубина : 8 бит
Тип развёртки : Чересстрочная
Метод сохранения типа развёртки : Раздельные поля
Порядок развёртки : Верхнее поле первое
Default : Да
Forced : Нет
Цветовой диапазон : Limited
Основные цвета : BT.709
Характеристики трансфера : BT.709
Коэффициенты матрицы : BT.709

Аудио #1
Идентификатор : 2
Формат : MPEG Audio
Версия формата : Version 1
Профиль формата : Layer 2
Идентификатор кодека : A_MPEG/L2
Идентификатор кодека/Подсказка : MP2
Продолжительность : 48 м. 51 с.
Вид битрейта : Постоянный
Битрейт : 192 Кбит/сек
Каналы : 2 канала
Частота : 48,0 КГц
Метод сжатия : С потерями
Размер потока : 67,1 Мбайт (4%)
Заголовок : Russian
Язык : Russian
Default : Да
Forced : Нет

Аудио #2
Идентификатор : 3
Формат : MPEG Audio
Версия формата : Version 1
Профиль формата : Layer 2
Идентификатор кодека : A_MPEG/L2
Идентификатор кодека/Подсказка : MP2
Продолжительность : 48 м. 51 с.
Вид битрейта : Постоянный
Битрейт : 192 Кбит/сек
Каналы : 2 канала
Частота : 48,0 КГц
Метод сжатия : С потерями
Размер потока : 67,1 Мбайт (4%)
Заголовок : English
Язык : English
Default : Нет
Forced : Нет
[/spoiler]



Скриншоты:


Всего комментариев: 0
Добавлять комментарии могут только зарегистрированные пользователи.
[ Регистрация | Вход ]

Опрос

Хотели бы вы вернуть СССР ?
Всего ответов: 594