Пароль:
Войти
МУЗЫКА/MUSIC ИГРЫ/GAMES ВИДЕО/VIDEO

Статистика

Всего
Польз.
Гости
Онлайн всего: 17
Гостей: 17
Пользователей: 0
fayfa
Администраторы
10381
katrin
Модераторы
8375
Nik
VIP пользователи
8237
stigmata
Администраторы
7905
Vanok
VIP пользователи
4474

Онлайн радио

Каталог торрентов

134
Пиды
13
Сиды

Animal Planet. Секреты природы / Nature's Strangest Mysteries: Solved (2019) HDTV [H.264/1080i] (серии 1-23 из 24) (Обновляемая)

Добавил: Nik Дата: 04 Dec 2019 Просмотров: 43
Скачать Animal Planet. Секреты природы / Nature's Strangest Mysteries:

Производство: США, Wall to Wal Media for Animal Planet
Жанр: Документальный, природа, флора, фауна

Режиссер: Торал Диксит
Участники: Джиллиан Берк, Люси Кук, Форрест Галанте

Описание:
Природа полна чудес и загадок. На первый взгляд кажется, что объяснить их невозможно. Но мы все же рискнем и изучим самые необычные, странные и неожиданные феномены из мира животных. Поверьте, увиденное поразит ваше воображение! Акулы, которые выбрасываются на берег, и сверкающий паук - ученые объяснят эти особенности с научной точки зрения.


Релиз от: Zakol
Продолжительность: серии x ~ 00:22:00
Качество видео: HDTV
Перевод: Одноголосый закадровый, профессиональный
Субтитры: отсутствуют

Видео: AVC/H.264, 1920x1080, ~10,7 Mbps
Аудио#1: MP2, 2 ch, 192 Kbps | Русский
Аудио#2: MP2, 2 ch, 192 Kbps | Английский
[spoiler=Mediainfo: (тех. данные всех серий идентичны)]
Общее
Идентификатор : 1 (0x1)
Полное имя : F:КИНОСекреты природы 1080 (2019)3 Секреты природы.ts
Формат : MPEG-TS
Размер файла : 1,78 Гбайт
Продолжительность : 21 м. 56 с.
Режим общего битрейта : Переменный
Общий поток : 11,6 Мбит/сек

Видео
Идентификатор : 1026 (0x402)
Идентификатор меню : 119 (0x77)
Формат : AVC
Формат/Информация : Advanced Video Codec
Профиль формата : High@L4
Настройки формата : CABAC / 4 Ref Frames
Параметр CABAC формата : Да
Параметр RefFrames формата : 4 кадра
Идентификатор кодека : 27
Продолжительность : 21 м. 56 с.
Битрейт : 10,7 Мбит/сек
Ширина : 1920 пикселей
Высота : 1080 пикселей
Соотношение сторон : 16:9
Частота кадров : 25,000 кадров/сек
Стандарт вещания : Component
Цветовое пространство : YUV
Субдискретизация насыщенности : 4:2:0
Битовая глубина : 8 бит
Тип развёртки : Чересстрочная
Метод сохранения типа развёртки : Раздельные поля
Порядок развёртки : Верхнее поле первое
Бит/(Пиксели*Кадры) : 0.205
Размер потока : 1,63 Гбайт (92%)
Цветовой диапазон : Limited
Основные цвета : BT.709
Характеристики трансфера : BT.709
Коэффициенты матрицы : BT.709

Аудио #1
Идентификатор : 1027 (0x403)
Идентификатор меню : 119 (0x77)
Формат : MPEG Audio
Версия формата : Version 1
Профиль формата : Layer 2
Идентификатор кодека : 3
Продолжительность : 21 м. 56 с.
Вид битрейта : Постоянный
Битрейт : 192 Кбит/сек
Каналы : 2 канала
Частота : 48,0 КГц
Частота кадров : 41,667 кадра/сек (1152 SPF)
Метод сжатия : С потерями
Размер потока : 30,1 Мбайт (2%)
Язык : Russian

Аудио #2
Идентификатор : 1028 (0x404)
Идентификатор меню : 119 (0x77)
Формат : MPEG Audio
Версия формата : Version 1
Профиль формата : Layer 2
Идентификатор кодека : 3
Продолжительность : 21 м. 56 с.
Вид битрейта : Постоянный
Битрейт : 192 Кбит/сек
Каналы : 2 канала
Частота : 48,0 КГц
Частота кадров : 41,667 кадра/сек (1152 SPF)
Метод сжатия : С потерями
Размер потока : 30,1 Мбайт (2%)
Язык : English
[/spoiler]



Скриншоты:


Всего комментариев: 0
Добавлять комментарии могут только зарегистрированные пользователи.
[ Регистрация | Вход ]

Опрос

Хотели бы вы вернуть СССР ?
Всего ответов: 549