Пароль:
Войти
МУЗЫКА/MUSIC ИГРЫ/GAMES ВИДЕО/VIDEO

Статистика

Всего
Польз.
Гости
Онлайн всего: 22
Гостей: 22
Пользователей: 0
fayfa
Администраторы
10572
katrin
Модераторы
8407
Nik
VIP пользователи
8382
stigmata
Администраторы
8081
Vanok
VIP пользователи
4565

Онлайн радио

Каталог торрентов

55
Пиды
43
Сиды

Алексей Глухов (Проекты Лёша Закон, Молот Родины, Шалава из Твери) (Zymotic Productions Ultra) (Music Videos 37X) (2005-2020) WEB-DL [H.264/ ...

Добавил: vika0509 Дата: 16 Jan 2020 Просмотров: 30
Скачать Алексей Глухов (Проекты Лёша Закон, Молот Родины, Шалава из Тв

Производство: Zymotic Productions Ultra
Жанр: Chanson, Post-Punk
Исполнители: Алексей Глухов, Таня Война

Продолжительность: 01:26:00
Качество видео: WEB-DL

Видео: AVC/H.264, 1920x1080 (1.778), ~3825 kbps, 1280x720 (1.778), ~1898 kbps, 854x480 (1.779), ~1055 kbps
Аудио: AAC, 2 ch, ~128 kb/s
Треклист:
2019 Шалава из Твери - Возраст [720]
2019 Шалава из Твери - Не ссы, пацан-не откажу! [720]
2019 Шалава из Твери - По пивку! [720]
2019 Шалава из Твери - Приуныл-прибухни! [720]
2019 Шалава из Твери - Раз - и на матрас! [720] [/spoiler]
[spoiler=Об исполнителе (группе)]Лёша Закон - Живая легенда русского андеграунда, яркий представитель так называемого the true андеграунда.
А также художник, скульптор и прочее, прочее, прочее..
Наиболее известен в качестве создателя таких групп и проектов как ''Ансамбль Христа Спасителя и Мать Сыра Земля'', ''Лёша Закон'', ''Молот Родины'', ''Demokratizator'', ''Шалава из Твери'', а также несметного числа различных нонконформистских, шумовых, экспериментальных, авангардных, грайндкоровых, нойзкоровых и пр. проектов.

В рамках проектов ''Лёша Закон'', ''Молот Родины'' является основателем "гоп-стоп-рока", исполняя песни на запретные жизненные темы.

Алексей Глухов - продюсер, директор лейба Zymotic Productions Ultra.
Список всех проектов Алексея Глухова,
В том числе проектов с его непосредственным участием.

/В алфавитном порядке/


РУССКИЙ БОЕВОЙ РОК
АЛЕКСЕЙ ГЛУХОВ /акустика, электричество/
МОЛОТ РОДИНЫ /боевой рок/
HARDCORE PROJECTS
DEMOKRATIZATOR /thrash hardcore/
ILIUM GALLINACIUS /funk jazz core/
PREZIDENT KRUSHER /political fastcore/
АНСАМБЛЬ ХРИСТА СПАСИТЕЛЯ И МАТЬ СЫРА ЗЕМЛЯ
/радикальный политический хардкор/
ВОЙНА В ТВОЕМ СЕРДЦЕ /punk/hardcore/
NEO IZERGIL /punk/hardcore/industrial/стёб/
ПРОТИВОФАЗА /female hardcore/thrash/
ГОП-СТОП-РОК
ЗВЕРСКИЕ ИНСТИНКТЫ /турбо-шансон, гостевое участие/
ЛЕША ЗАКОН /гоп-стоп-рок/
ШАЛАВА ИЗ ТВЕРИ /дворовый рок, стёб/
BLACK METAL PROJECTS
CHRISTOPHAGOS /blizzard black metal/
DEFLORATOR /punkblack/
D'ROL-TA-OG /funeral black metal/
HUMANOID MIASMA /black metal с инопланетянином на вокале/
NECROSTENCH/necroblack/
SATANIC ULTRA /blackgrind/
SKVERNA /necroblack metal/
UMDHLEBI TERROR /African blackgrind/
СКУЛЬД /black metal/
DEATH METAL AND FUNERAL DOOM PROJECTS
DEADCUNT STOMATOLOG /fastcore death metal/
GEKATOMBA /funeral/ritual/
HAPTOPHOBICUM /funeral death metal/
L'ALDILA KATARAKTA /funeral/
R'LYEH WGAH'NAGL FHTAGN /cthilhu funeral/
SKOTOMOGILNIK /самая медленная группа в мире/
YOUR DEAD MOTHER /funeral doom metal/
DARK AMBIENT PROJECTS
ACCANTO AL CIMITERO /dungeon synth/
CRYPTONECROMORPHIC AMNEZIA /dark ambient, drone, совместный проект/
DEFAUNIZATOR /noise ambient/
KRYPTOMNEZIASM /dark ambient, musique concrete/
NECROANABIOSIS /dark horror ambient, drone/
NECROKATACOMB KLITERODECTOMIA /horror ambient/
OSTOLBENENIE /dark ambient/lower-case, drone/
PHENGOPHOBOS LETARGIA /drone dark ambient/
PROTOPLASMA DEFORMATOR /dark ambient/
TEKTONIK SKOLOPENDRA /dark ambient, noise/
THANATOMORPHOS /ritual horror ambient/
ДОННОЕ /dark ambient, совместный проект/
ПРАВОСЛАВНЫЙ ТРАКТОР /dark electronics. Horror ambient/
GRINDCORE / GRINDNOISE / GORENOISE PROJECTS
ANAL ABORTION /electrogrind, гостевое участие/
ANAL MOUTH /coprogrind/
ANUS MP3 /noisecore/
AUDIOPIZDA /coprotechno, noise/
BACTERIAL PHLEGETHON /brutal gorenoise/
BRUCELLOS KAVERNA EXTRUZER /gorenoise/
BULIMIA KAMIKADZE /gorenoise/
CLOACA'S CASTRATOR /gore deathgrind/
CYCLOSTOMATA /gorenoise/
DEFRAGMENTATOR /political grindcore/
DEHYDROTATED KASTRAT /cybergrind/fastcore/
DESANT MANDAVOSHEK /noisecore, shitcore/
DIVERSION GRINDCORE TORPEDA /cybergrind/
ENTEO BAND и группа ’’БОЖЬЯ ВОЛЯ’’ /noisecore/
GORENOISE TRIBUNAL COPROBOMBA /gorenoise/
HOLOCAUSTO PARTIZAN /cybergrind/
HYDROPHALLOS /electrogrind, гостевое участие/
KISHKOЁB /grindcore, gore/
KLIZMA /coprogrind/
KLOAKA UZURPATOR /fastcore grind/
LATERALIS PUBEOTOMIYA /gorenoise/
MEAT FLAGELLATOR /brutal noisecore/
NECROCEPHAL /guttural cybergrind/
PIZDOBLASTOSIS /gorenoise/
RVOTA /coprogrind/
TORN GLANDS /lo-fi toilet noise/
TURBULENT TREPANATOR /gorenoise/
ULTRANECRODEFORMATOR /noisecore/fastcore/
VANTUZ /copronoise/
VERASY-PEDERASY /shitcore, noise/
VIKIDISH /brutal noisecore/
VOMITFALL PIGWORLD BOMBARDER /political grindcore/
ПОДЗАЛУПНАЯ ПЕРХОТЬ /noisecore/
VULNUS PUNCTUM ULTRAZYMOSIS /harshnoise/gorenoise/
ZYMOTIC /самая быстрая группа в мире/
РЫБИЙ ЖИР /gorenoise/
СТОЯЧИЕНОСКИ /punknoise/punkcore/
СУЧИЙ ПОТРОХ /noisegrind/
ТРУПОПЛАВИЛЬНАЯ ПЕЧЬ /pure noise/noisecore/
ФСБ /hardcore/grindcore/
ХАРОН /shitcore/
ШАРИАТСКИЙ СУД /militaristic noise/
NOISE / HARSHNOISE / INDUSTRIAL PROJECTS
ANTIDEMOKRATIA /political terrorcore/
AUTOTOMIA /noise/
BOLO FUCK /martial noise/industrial/
BORBORYGMUS ERUCTATOR /jazz-noise/
EXCAVATOR /noise/industrial/
HUMANOID TORTURE /horror ambient industrial/
NECRONAUTO PULSAR /cosmic ambient noise/
NOISEHORROR BULLDOZER /noise/
NYSTAGM /harshnoise/japanoise/
PRAVOSLAVNAYA KARAKATITZA /noise industrial/
RADIO TERROR /radionoise/
ROI DE RATS /noise/
SVASTIKA /noise, harshnoise/
SVINOMATKA /dancegrind/
TROCAR CYSTOSTOMY ORCHESTRA /abstraction/noise/
ZAZEMLENIE /industrial noise/
ВКУСНЫЙ КОНЕЦ /pornoindustrial/pornonoise/
ГРОБ ГОСПОДЕНЪ /digital noise [/spoiler] ПРАВЫЙ РУССКИЙ БОЕВОЙ РОК пропагандирующий и восхваляющий Культ Сильной Личности и Силу Славянского Духа.


[spoiler=Над Землёю Синева (official video)]2019 Алексей Глухов - Над Землёю Синева (official video) [720].mp4
Format : MPEG-4
Format profile : Base Media
Codec ID : isom (isom/iso2/avc1/mp41)
File size : 57.7 MiB
Duration : 3 min 58 s
Overall bit rate : 2 031 kb/s
Writing application : Lavf58.29.100

Video
ID : 1
Format : AVC
Format/Info : Advanced Video Codec
Format profile : Main@L3.1
Format settings : CABAC / 3 Ref Frames
Format settings, CABAC : Yes
Format settings, Reference frames : 3 frames
Codec ID : avc1
Codec ID/Info : Advanced Video Coding
Duration : 3 min 58 s
Bit rate : 1 898 kb/s
Width : 1 280 pixels
Height : 720 pixels
Display aspect ratio : 16:9
Frame rate mode : Constant
Frame rate : 25.000 FPS
Color space : YUV
Chroma subsampling : 4:2:0
Bit depth : 8 bits
Scan type : Progressive
Bits/(Pixel*Frame) : 0.082
Stream size : 53.9 MiB (93%)
Title : ISO Media file produced by Google Inc.
Color range : Limited
Color primaries : BT.601 PAL
Transfer characteristics : BT.709
Matrix coefficients : BT.470 System B/G
Codec configuration box : avcC

Audio
ID : 2
Format : AAC LC
Format/Info : Advanced Audio Codec Low Complexity
Codec ID : mp4a-40-2
Duration : 3 min 58 s
Bit rate mode : Constant
Bit rate : 128 kb/s
Channel(s) : 2 channels
Channel layout : L R
Sampling rate : 44.1 kHz
Frame rate : 43.066 FPS (1024 SPF)
Compression mode : Lossy
Stream size : 3.64 MiB (6%)
Title : ISO Media file produced by Google Inc.
Default : Yes
Alternate group : 1 [/spoiler]
[spoiler=Над Землёю Синева (режиссёрская версия)]2019 Алексей Глухов - Над Землёю Синева (режиссёрская версия) [1080].mp4
Format : MPEG-4
Format profile : Base Media
Codec ID : isom (isom/iso2/avc1/mp41)
File size : 114 MiB
Duration : 4 min 0 s
Overall bit rate : 3 960 kb/s
Writing application : Lavf58.29.100

Video
ID : 1
Format : AVC
Format/Info : Advanced Video Codec
Format profile : High@L4
Format settings : CABAC / 3 Ref Frames
Format settings, CABAC : Yes
Format settings, Reference frames : 3 frames
Codec ID : avc1
Codec ID/Info : Advanced Video Coding
Duration : 4 min 0 s
Bit rate : 3 825 kb/s
Width : 1 920 pixels
Height : 1 080 pixels
Display aspect ratio : 16:9
Frame rate mode : Constant
Frame rate : 30.000 FPS
Color space : YUV
Chroma subsampling : 4:2:0
Bit depth : 8 bits
Scan type : Progressive
Bits/(Pixel*Frame) : 0.061
Stream size : 110 MiB (97%)
Title : ISO Media file produced by Google Inc.
Color range : Limited
Color primaries : BT.709
Transfer characteristics : BT.709
Matrix coefficients : BT.709
Codec configuration box : avcC

Audio
ID : 2
Format : AAC LC
Format/Info : Advanced Audio Codec Low Complexity
Codec ID : mp4a-40-2
Duration : 4 min 0 s
Bit rate mode : Constant
Bit rate : 128 kb/s
Channel(s) : 2 channels
Channel layout : L R
Sampling rate : 44.1 kHz
Frame rate : 43.066 FPS (1024 SPF)
Compression mode : Lossy
Stream size : 3.67 MiB (3%)
Title : ISO Media file produced by Google Inc.
Language : English
Default : Yes
Alternate group : 1 [/spoiler]
Скриншоты:



Примечания: По желанию пользователей, раздача может дополняться новыми релизами по мере их создания, Modern Warfare Remastered старых.
Всего комментариев: 0
Добавлять комментарии могут только зарегистрированные пользователи.
[ Регистрация | Вход ]

Опрос

Отображается ли корректно наш сайт?
Всего ответов: 303